<?xml version="1.0" standalone="no"?>
<!DOCTYPE svg PUBLIC "-//W3C//DTD SVG 1.1//EN" "http://www.w3.org/Graphics/SVG/1.1/DTD/svg11.dtd">
<svg xmlns="http://www.w3.org/2000/svg">
<metadata>Copyright (C) 2019 by original authors @ fontello.com</metadata>
<defs>
<font id="molla" horiz-adv-x="1000" >
<font-face font-family="molla" font-weight="400" font-stretch="normal" units-per-em="1000" ascent="850" descent="-150" />
<missing-glyph horiz-adv-x="1000" />
<glyph glyph-name="google-1" unicode="&#xe800;" d="M953 339c0-277-189-473-469-473-268 0-484 216-484 484s216 484 484 484c131 0 241-47 325-126l-132-127c-172 166-493 41-493-231 0-169 135-306 300-306 192 0 264 138 275 209h-275v167h462c4-25 7-49 7-81z" horiz-adv-x="953.1" />

<glyph glyph-name="check" unicode="&#xe801;" d="M884 654l45-45-563-563-22-21-23 21-250 250 45 45 228-227z" horiz-adv-x="1000" />

<glyph glyph-name="angle-up" unicode="&#xe802;" d="M500 644l23-21 390-391-45-45-368 368-368-368-45 45 391 391z" horiz-adv-x="1000" />

<glyph glyph-name="life-ring" unicode="&#xe803;" d="M500 725c207 0 375-168 375-375s-168-375-375-375-375 168-375 375 168 375 375 375z m0-62c-10 0-21-1-31-2v-95c10 1 20 3 31 3s21-2 31-3v95c-10 1-20 2-31 2z m-94-14c-97-31-173-108-204-205h101c21 45 58 82 103 103v102z m188 0v-102c45-21 82-58 103-103h102c-31 97-108 174-205 205z m-94-143c-87 0-156-69-156-156s69-156 156-156 156 69 156 156-69 156-156 156z m-310-125c-1-10-2-20-2-31 0-10 1-21 2-31h94c-1 10-3 20-3 31 0 11 1 21 2 31h-93z m526 0c1-10 3-20 3-31s-2-21-3-31h95c1 10 2 21 2 31s-1 21-2 31h-95z m-515-125c31-97 108-174 205-205v102c-45 21-82 58-103 103h-102z m496 0c-21-45-58-82-103-103v-102c97 31 174 108 205 205h-102z m-228-122v-94c10-1 21-2 31-2s21 1 31 2v94c-10-1-20-3-31-3s-21 2-31 3z" horiz-adv-x="1000" />

<glyph glyph-name="phone-square" unicode="&#xe804;" d="M271 756c16 0 32-6 45-16l2-1 1-1 125-129 3-3-1-1c28-26 28-69 1-96l-62-62c9-22 36-78 87-127 51-49 105-77 128-88l61 61 1 1c26 26 72 26 98 0l1-2 127-127c26-25 26-70 0-96l-97-97-1-1-1-1c-29-25-70-34-108-21h-1c-74 28-222 93-355 226-132 133-200 279-226 355 0 0 0 1 0 1-13 36-4 77 26 105l-1 1 98 101 1 1 2 1c13 10 29 16 46 16z m0-62c-3 0-5-1-7-3l-95-97-1-1-1-1c-11-9-14-28-10-41 24-68 89-208 212-332 123-122 260-183 331-211 18-6 34-3 48 9l96 96c5 5 5 3 0 9l-128 127c-5 6-5 6-10 0l-78-78-15-14-19 8s-86 37-158 103l-7 6c-76 72-112 168-112 168l-6 19 14 14 78 78c4 4 2 7 2 7l-1 1-2 2-125 128c-2 2-4 3-6 3z" horiz-adv-x="1000" />

<glyph glyph-name="euro" unicode="&#xe805;" d="M563 725c84 0 161-41 216-104l-48-41c-45 52-104 83-168 83-110 0-206-91-239-219h270v-63h-280c-1-10-1-20-1-31s0-21 1-31h280v-63h-270c33-128 129-218 239-218 64 0 123 30 168 83l48-41c-55-64-132-105-216-105-149 0-269 122-303 281h-72v63h64c-1 10-2 21-2 31s1 21 2 31h-64v63h72c34 160 154 281 303 281z" horiz-adv-x="1000" />

<glyph glyph-name="phone" unicode="&#xe806;" d="M271 756c16 0 32-6 45-16l2-1 1-1 125-129 3-3-1-1c28-26 28-69 1-96l-62-62c9-22 36-78 87-127 51-49 105-77 128-88l61 61 1 1c26 26 72 26 98 0l1-2 127-127c26-25 26-70 0-96l-97-97-1-1-1-1c-29-25-70-34-108-21h-1c-74 28-222 93-355 226-132 133-200 279-226 355 0 0 0 1 0 1-13 36-4 77 26 105l-1 1 98 101 1 1 2 1c13 10 29 16 46 16z m0-62c-3 0-5-1-7-3l-95-97-1-1-1-1c-11-9-14-28-10-41 24-68 89-208 212-332 123-122 260-183 331-211 18-6 34-3 48 9l96 96c5 5 5 3 0 9l-128 127c-5 6-5 6-10 0l-78-78-15-14-19 8s-86 37-158 103l-7 6c-76 72-112 168-112 168l-6 19 14 14 78 78c4 4 2 7 2 7l-1 1-2 2-125 128c-2 2-4 3-6 3z" horiz-adv-x="1000" />

<glyph glyph-name="life-bouy" unicode="&#xe807;" d="M500 725c207 0 375-168 375-375s-168-375-375-375-375 168-375 375 168 375 375 375z m0-62c-10 0-21-1-31-2v-95c10 1 20 3 31 3s21-2 31-3v95c-10 1-20 2-31 2z m-94-14c-97-31-173-108-204-205h101c21 45 58 82 103 103v102z m188 0v-102c45-21 82-58 103-103h102c-31 97-108 174-205 205z m-94-143c-87 0-156-69-156-156s69-156 156-156 156 69 156 156-69 156-156 156z m-310-125c-1-10-2-20-2-31 0-10 1-21 2-31h94c-1 10-3 20-3 31 0 11 1 21 2 31h-93z m526 0c1-10 3-20 3-31s-2-21-3-31h95c1 10 2 21 2 31s-1 21-2 31h-95z m-515-125c31-97 108-174 205-205v102c-45 21-82 58-103 103h-102z m496 0c-21-45-58-82-103-103v-102c97 31 174 108 205 205h-102z m-228-122v-94c10-1 21-2 31-2s21 1 31 2v94c-10-1-20-3-31-3s-21 2-31 3z" horiz-adv-x="1000" />

<glyph glyph-name="rmb" unicode="&#xe808;" d="M225 694h74l201-323 201 323h74l-214-344h127v-62h-157v-63h157v-62h-157v-157h-62v157h-156v62h156v63h-156v62h127z" horiz-adv-x="1000" />

<glyph glyph-name="creative-commons-1" unicode="&#xe809;" d="M500 725c207 0 375-168 375-375s-168-375-375-375-375 168-375 375 168 375 375 375z m0-62c-173 0-312-140-312-313s139-312 312-312 313 139 313 312-140 313-313 313z m-125-188c51 0 94-42 94-94h-63c0 18-13 32-31 32s-31-14-31-32v-62c0-18 13-31 31-31s31 13 31 31h63c0-52-43-94-94-94s-94 42-94 94v62c0 52 43 94 94 94z m250 0c51 0 94-42 94-94h-63c0 18-13 32-31 32s-31-14-31-32v-62c0-18 13-31 31-31s31 13 31 31h63c0-52-43-94-94-94s-94 42-94 94v62c0 52 43 94 94 94z" horiz-adv-x="1000" />

<glyph glyph-name="comment-o" unicode="&#xe80a;" d="M94 663h31 750 31v-32-562-31h-31-268l-84-86-23-21-22 21-85 86h-268-31v31 562 32z m62-63v-500h250 13l10-9 71-71 71 71 10 9h13 250v500h-688z m125-94h438v-62h-438v62z m0-125h438v-62h-438v62z m0-125h313v-62h-313v62z" horiz-adv-x="1000" />

<glyph glyph-name="check-circle-o" unicode="&#xe80b;" d="M500 756c109 0 209-43 281-115l-44-44c-59 59-143 97-237 97-191 0-344-153-344-344s153-344 344-344 344 153 344 344c0 28-4 53-10 78l51 50c15-41 21-84 21-128 0-225-181-406-406-406s-406 181-406 406 181 406 406 406z m353-133l45-45-375-375-23-22-22 22-157 156 45 45 134-134z" horiz-adv-x="1000" />

<glyph glyph-name="info-circle" unicode="&#xe80c;" d="M500 756c224 0 406-182 406-406s-182-406-406-406-406 182-406 406 182 406 406 406z m0-62c-190 0-344-154-344-344s154-344 344-344 344 154 344 344-154 344-344 344z m-31-156h62v-63h-62v63z m0-125h62v-250h-62v250z" horiz-adv-x="1000" />

<glyph glyph-name="cog" unicode="&#xe80d;" d="M412 756h26 125 25l5-25 18-93c30-12 57-28 81-48l91 32 25 7 12-22 63-108 13-22-19-17-70-61c2-16 6-32 6-49s-4-33-6-49l70-61 19-17-13-22-63-108-12-22-25 8-91 31c-24-20-51-36-81-48l-18-93-5-25h-25-125-26l-5 25-18 93c-30 12-57 28-81 48l-91-31-25-8-12 22-63 108-12 22 18 17 70 61c-2 16-5 32-5 49s3 33 5 49l-70 61-18 17 12 22 63 108 12 22 25-7 91-32c24 20 51 36 81 48l18 93z m51-62l-16-81-4-19-17-6c-36-11-68-30-95-54l-14-13-17 6-79 27-37-63 62-56 15-12-5-18c-4-18-6-36-6-55s2-37 6-55l5-18-15-12-62-56 37-63 79 27 17 6 14-13c27-24 59-43 95-54l17-6 4-19 16-81h74l16 81 4 19 17 6c36 11 68 30 95 54l14 13 17-6 79-27 37 63-62 56-14 12 4 18c4 18 6 36 6 55s-2 37-6 55l-5 18 15 12 62 56-37 63-79-27-17-6-14 13c-27 24-59 43-95 54l-17 6-4 19-16 81h-74z m37-188c86 0 156-70 156-156s-70-156-156-156-156 70-156 156 70 156 156 156z m0-62c-52 0-94-42-94-94s42-94 94-94 94 42 94 94-42 94-94 94z" horiz-adv-x="1000" />

<glyph glyph-name="cogs" unicode="&#xe80e;" d="M672 772h62v-44c26-5 50-15 71-29l29 29 44-44-29-29c14-21 24-45 29-71h44v-62h-44c-5-26-15-50-29-71l30-33-46-43-29 32c-21-14-44-24-70-29v-44h-62v44c-26 5-50 15-70 30l-33-34-45 45 34 33c-15 20-25 44-30 70h-44v62h44c5 26 15 49 29 70l-32 29 43 46 33-30c21 14 45 24 71 29v44z m31-104c-64 0-115-51-115-115s51-115 115-115 115 51 115 115-51 115-115 115z m-405-184l22-57c17 4 34 7 52 7 18 0 35-3 52-7l22 57 58-24-23-56c30-18 55-43 73-73l56 23 24-58-57-22c4-17 7-34 7-52s-3-35-7-52l57-22-24-58-56 23c-18-30-43-55-73-73l23-56-58-24-22 56c-17-4-34-7-52-7-18 0-35 3-52 7l-22-56-58 24 23 56c-30 18-55 43-73 73l-56-23-24 58 56 22c-4 17-7 34-7 52s3 35 7 52l-56 22 24 58 56-23c18 30 43 55 73 73l-23 56z m74-112c-83 0-150-67-150-150s67-150 150-150 150 67 150 150-67 150-150 150z" horiz-adv-x="1000" />

<glyph glyph-name="gift" unicode="&#xe80f;" d="M375 694c55 0 92-42 116-76 4-5 6-10 9-14 3 4 6 9 9 14 24 34 61 76 116 76 51 0 94-43 94-94 0-11-2-21-6-31h131 31v-31-125-32h-31v-375-31h-31-625-32v31 375h-31v32 125 31h31 131c-3 10-6 20-6 31 0 51 43 94 94 94z m0-63c-18 0-31-13-31-31s13-31 31-31h72c-3 6-3 7-7 13-20 28-45 49-65 49z m250 0c-20 0-45-21-64-49-5-6-4-7-8-13h72c18 0 31 13 31 31s-13 31-31 31z m-437-125v-62h281v31h62v-31h282v62h-313-47-265z m31-125v-343h250v312h62v-312h250v343h-562z" horiz-adv-x="1000" />

<glyph glyph-name="cart-arrow-down" unicode="&#xe810;" d="M125 631h69c29 0 54-19 61-47l82-328h390l75 282h65l-81-298c-7-27-31-46-59-46h-39-282-69c-29 0-54 19-61 47l-82 328h-69c-17 0-31 14-31 31s14 31 31 31z m563-437c51 0 93-43 93-94s-42-94-93-94-94 43-94 94 42 94 94 94z m-282 0c52 0 94-43 94-94s-42-94-94-94-93 43-93 94 42 94 93 94z m94 437h63v-156h93l-125-125-125 125h94v156z m-94-500c-17 0-31-13-31-31s14-31 31-31 32 13 32 31-14 31-32 31z m282 0c-18 0-32-13-32-31s14-31 32-31 31 13 31 31-14 31-31 31z" horiz-adv-x="1000" />

<glyph glyph-name="home" unicode="&#xe811;" d="M500 769l23-21 406-407-45-45-40 40v-330-31h-31-219-31v31 282h-125v-282-31h-32-218-32v31 330l-40-40-45 45 407 407z m0-89l-281-281v-361h156v281 31h31 188 31v-31-281h156v361z" horiz-adv-x="1000" />

<glyph glyph-name="cart-plus" unicode="&#xe812;" d="M125 631h69c29 0 54-19 61-47l82-328h390l75 282h65l-81-298c-7-27-31-46-59-46h-39-282-69c-29 0-54 19-61 47l-82 328h-69c-17 0-31 14-31 31s14 31 31 31z m563-437c51 0 93-43 93-94s-42-94-93-94-94 43-94 94 42 94 94 94z m-282 0c52 0 94-43 94-94s-42-94-94-94-93 43-93 94 42 94 93 94z m94 437h63v-93h93v-63h-93v-94h-63v94h-94v63h94v93z m-94-500c-17 0-31-13-31-31s14-31 31-31 32 13 32 31-14 31-32 31z m282 0c-18 0-32-13-32-31s14-31 32-31 31 13 31 31-14 31-31 31z" horiz-adv-x="1000" />

<glyph glyph-name="refresh" unicode="&#xe813;" d="M500 725c112 0 213-49 281-128v97h63v-188-31h-31-188v63h123c-56 75-147 125-248 125-134 0-244-83-290-200l-58 24c55 139 188 238 348 238z m290-488l58-24c-55-139-188-238-348-238-113 0-213 51-281 128v-97h-63v188 31h32 187v-62h-124c57-75 147-125 249-125 134 0 245 82 290 199z" horiz-adv-x="1000" />

<glyph glyph-name="eye" unicode="&#xe814;" d="M500 600c261 0 461-229 461-229l19-21-19-20s-183-209-426-228c-11-1-23-2-35-2s-23 1-35 2c-243 19-426 228-426 228l-18 20 18 21s201 229 461 229z m0-62c-70 0-134-20-189-45h1c-20-33-31-71-31-112 0-113 85-205 195-217 8-1 16-1 24-1 8 0 15 0 23 1 0 0 1-1 1 0 110 12 195 104 195 217 0 42-12 80-31 113-56 25-119 44-188 44z m0-63c52 0 94-42 94-94s-42-93-94-93-94 42-94 93 42 94 94 94z m-273-29c-60-40-102-81-117-96 18-18 73-73 152-118-28 43-43 94-43 149 0 23 3 44 8 65z m546 0c5-21 8-42 8-65 0-55-15-106-43-149 79 45 134 100 152 118-15 15-57 56-117 96z" horiz-adv-x="1000" />

<glyph glyph-name="map-marker" unicode="&#xe815;" d="M500 756c155 0 281-126 281-281 0-44-18-94-42-149s-55-114-87-168c-63-109-127-201-127-201l-25-37-25 37s-64 92-127 201c-32 54-63 113-87 168s-42 105-42 149c0 155 126 281 281 281z m0-62c-121 0-219-98-219-219 0-25 14-72 36-124s55-109 85-162c50-85 80-130 98-156 18 26 49 71 98 156 31 53 62 110 85 162s36 99 36 124c0 121-98 219-219 219z m0-156c35 0 63-28 63-63s-28-62-63-62-62 28-62 62 28 63 62 63z" horiz-adv-x="1000" />

<glyph glyph-name="headphones" unicode="&#xe816;" d="M500 694c190 0 344-154 344-344v-125-125c0-51-43-94-94-94h-62-32v32 218 32h32 93v62c0 156-125 281-281 281s-281-125-281-281v-62h94 31v-32-218-32h-31-63c-51 0-94 43-94 94v125 125c0 190 155 344 344 344z m-281-469v-125c0-18 13-31 31-31h31v156h-62z m500 0v-156h31c18 0 31 13 31 31v125h-62z" horiz-adv-x="1000" />

<glyph glyph-name="comments" unicode="&#xe817;" d="M63 694h31 562 32v-31-438-31h-32-270l-148-118-50-41v65 94h-94-31v31 438 31z m62-63v-375h94 31v-31-60l106 84 8 7h11 250v375h-500z m625-62h188v-500h-125v-159l-199 159h-291l78 62h235l114-91v91h125v375h-125v63z" horiz-adv-x="1000" />

<glyph glyph-name="list-alt" unicode="&#xe818;" d="M321 685l45-45-125-125-22-21-23 21-62 63 45 45 40-41z m148-54h406v-62h-406v62z m-148-196l45-45-125-125-22-21-23 21-62 63 45 45 40-41z m148-54h406v-62h-406v62z m-148-196l45-45-125-125-22-21-23 21-62 63 45 45 40-41z m148-54h406v-62h-406v62z" horiz-adv-x="1000" />

<glyph glyph-name="list-ol" unicode="&#xe819;" d="M187 756h13 19 31v-31-187h-62v141c-14-8-29-16-50-16v62c15 0 39 21 39 21z m157-93h531v-63h-531v63z m-141-188c43 0 78-35 78-78 0-15-7-34-23-47l1-1-4-3-27-27h53v-63h-125-31v32 5 14l10 9 81 78 2 2 1 1c0 7-9 16-16 16s-15-9-15-16v-16h-63v16c0 43 35 78 78 78z m141-94h531v-62h-531v62z m-219-187h94 31v-31-6-9l-4-8-13-21c27-13 48-34 48-66 0-43-35-78-78-78h-78v63h78c7 0 16 8 16 15s-9 16-16 16h-15-32v31 3 9l4 7 8 12h-43v63z m219-94h531v-62h-531v62z" horiz-adv-x="1000" />

<glyph glyph-name="clone-1" unicode="&#xe81a;" d="M906 850c52 0 94-42 94-94v-625c0-51-42-93-94-93h-93v-94c0-52-42-94-94-94h-625c-52 0-94 42-94 94v625c0 52 42 94 94 94h94v93c0 52 42 94 93 94h625z m-199-906c7 0 12 5 12 11v83h-438c-51 0-93 42-93 93v438h-82c-7 0-12-5-12-12v-602c0-6 5-11 12-11h601z m188 187c6 0 11 6 11 12v602c0 6-5 11-11 11h-602c-6 0-12-5-12-11v-602c0-6 6-12 12-12h602z" horiz-adv-x="1000" />

<glyph glyph-name="plus-square-o" unicode="&#xe81b;" d="M156 694h32 625 31v-31-625-32h-31-625-32v32 625 31z m63-63v-562h562v562h-562z m250-125h62v-125h125v-62h-125v-125h-62v125h-125v62h125v125z" horiz-adv-x="1000" />

<glyph glyph-name="rotate-left" unicode="&#xe81c;" d="M469 756h31v-62h-31v62z m-68-13l18-60-24-7-2-1-22-8-2-1h-1l-26 57 3 1 1 1h1l26 10h1l1 1z m224-18h31 219v-62h-114c89-75 145-186 145-313 0-223-183-406-406-406s-406 183-406 406v31h62v-31c0-189 155-344 344-344s344 155 344 344c0 123-62 226-156 288v-163h-63v219 31z m-339-31l33-53-14-10-2-1-18-13-2-1-7-6-41 47 9 8h1l1 0 22 17h1l1 1z m-96-81l48-41-7-8 0-1-14-19-2-2-9-14-53 34 11 17 1 1v1l17 21 1 1 1 1z m-66-107l57-26v-1l-1-2-8-21-1-2-7-25-59 17 6 26 1 2v1l10 25v1l1 1z" horiz-adv-x="1000" />

<glyph glyph-name="tv" unicode="&#xe81d;" d="M1156 850c52 0 94-42 94-94v-625c0-51-42-93-94-93h-458v-63h312c35 0 63-28 63-63s-28-62-63-62h-750c-35 0-62 28-62 62s27 63 62 63h313v63h-479c-52 0-94 42-94 93v625c0 52 42 94 94 94h1062z m-31-687v562h-1000v-562h1000z" horiz-adv-x="1250" />

<glyph glyph-name="play" unicode="&#xec2c;" d="M829 431l-688 406c-55 33-141 1-141-81v-812c0-74 80-118 141-81l688 406c61 37 61 126 0 162z" horiz-adv-x="875" />

<glyph glyph-name="check-1" unicode="&#xec2d;" d="M340-8l-325 325c-20 19-20 51 0 71l70 70c20 20 52 20 71 0l219-219 469 469c20 20 51 20 71 0l70-70c20-20 20-52 0-71l-575-575c-19-20-51-20-70 0z" horiz-adv-x="1000" />

<glyph glyph-name="music" unicode="&#xf001;" d="M1000 788l0-688c0-69-84-125-187-125s-188 56-188 125 84 125 188 125c22 0 42-3 62-8v361l-500-147v-456c0-69-84-125-187-125s-188 56-188 125 84 125 188 125c22 0 42-3 62-8v511c0 27 18 51 44 60l625 184c40 13 81-17 81-59z" horiz-adv-x="1000" />

<glyph glyph-name="gift-1" unicode="&#xf06b;" d="M63-25v250h375v-313h-313c-35 0-62 28-62 63z m500-63v313h375v-250c0-35-28-63-63-63h-312z m375 626c34 0 62-28 62-63v-156c0-17-14-31-31-31h-938c-17 0-31 14-31 31v156c0 35 28 63 63 63h86c-13 23-20 49-20 78 0 94 77 172 172 172 81 0 134-42 201-134 67 92 120 134 201 134 95 0 172-78 172-172 0-29-8-55-20-78h83z m-637 0h168c-101 149-129 156-168 156-44 0-78-35-78-78s34-78 78-78z m402 0c43 0 78 35 78 78s-35 78-78 78c-40 0-68-7-168-156h168z" horiz-adv-x="1000" />

<glyph glyph-name="twitter-square" unicode="&#xf081;" d="M781 788c52 0 94-42 94-94v-688c0-52-42-94-94-94h-687c-52 0-94 42-94 94v688c0 52 42 94 94 94h687z m-95-311c25 19 47 41 64 67-23-10-48-17-74-20 27 16 47 41 56 70-24-14-52-25-81-30-23 25-56 40-93 40-78 0-143-71-125-157-107 5-201 56-264 134-12-19-18-41-18-65v0c0-38 26-86 57-107-21 1-41 7-58 16v-1c0-62 44-114 103-126-20-5-38-5-58-2 16-51 64-88 120-89-44-34-99-55-159-55-11 0-21 1-31 2 57-37 124-58 197-58 235 0 364 195 364 365 0 5 0 11 0 16z" horiz-adv-x="875" />

<glyph glyph-name="facebook-square" unicode="&#xf082;" d="M875 694v-688c0-52-42-94-94-94h-166v347h118l17 132h-135v84c0 38 10 64 65 64h70v118c-12 2-53 6-102 6-101 0-170-62-170-175v-98h-119v-132h119v-346h-384c-52 0-94 42-94 94v688c0 52 42 94 94 94h687c52 0 94-42 94-94z" horiz-adv-x="875" />

<glyph glyph-name="linkedin" unicode="&#xf08c;" d="M813 788c34 0 62-29 62-64v-748c0-35-28-64-62-64h-751c-34 0-62 29-62 64v748c0 35 28 64 62 64h751z m-548-750h0v417h-130v-417h130z m-65 474c41 0 75 34 75 75 0 42-34 76-75 76-42 0-76-34-76-76s34-75 76-75z m551-474v228c0 113-25 199-156 199-63 0-105-34-123-67h-2v57h-124v-417h130v206c0 55 10 107 78 107 66 0 67-62 67-110v-203h130z" horiz-adv-x="875" />

<glyph glyph-name="github-square" unicode="&#xf092;" d="M781 788c52 0 94-42 94-94v-688c0-52-42-94-94-94h-687c-52 0-94 42-94 94v688c0 52 42 94 94 94h687z m-239-750c129 43 216 166 216 309 0 180-145 316-325 316s-316-136-316-316c0-143 90-266 219-309 17-3 22 7 22 16 0 8 0 52 0 79 0 0-91-19-110 39 0 0-14 37-35 47 0 0-30 20 2 20 0 0 32-3 50-34 28-50 75-35 94-27 3 21 11 35 21 44-73 8-146 18-146 143 0 35 10 53 31 76-4 8-15 43 3 88 27 8 89-35 89-35 26 7 54 11 82 11 27 0 55-4 81-11 0 0 62 43 89 35 18-45 7-80 4-88 20-23 33-41 33-76 0-125-76-135-148-143 11-10 22-30 22-60 0-44-1-98-1-108 0-9 6-19 23-16z m-192 119c-4 0-7 1-8 4 0 3 3 5 6 6 4 0 8-1 8-4 0-2-2-5-6-6z m-19 2c0 3-3 5-7 5-4 0-7-2-7-5 0-3 3-5 8-4 4 0 6 2 6 4z m-26 2c-1-2-5-3-8-2-4 1-7 4-6 6 1 3 5 4 8 3 4-1 7-4 6-7z m-24 11c1 1 0 5-2 8-3 3-7 3-8 1-2-2-2-5 1-8 3-3 7-3 9-1z m-18 18c2 1 2 5 0 8-2 3-5 4-7 2-2-1-2-4 0-7 2-3 5-4 7-3z m-13 19c2 1 2 4-1 6-2 2-5 3-6 2-2-2-2-5 0-7 3-2 5-3 7-1z m-13 14c1 2 0 4-3 5-2 1-4 1-5-1-1-1 0-4 3-5 2-1 4-1 5 1z" horiz-adv-x="875" />

<glyph glyph-name="twitter" unicode="&#xf099;" d="M897 554c1-9 1-18 1-27 0-271-206-583-583-583-116 0-224 33-315 92 17-2 32-3 50-3 95 0 184 33 254 88-90 2-166 61-192 142 13-2 26-3 39-3 18 0 37 2 54 7-94 19-164 101-164 201v3c27-16 59-25 92-26-55 36-91 99-91 170 0 38 10 73 28 104 101-125 252-206 422-215-3 15-5 31-5 47 0 113 92 205 205 205 59 0 113-25 150-65 46 9 91 26 130 50-15-48-47-88-90-113 41 4 81 16 118 32-28-41-63-77-103-106z" horiz-adv-x="998" />

<glyph glyph-name="facebook" unicode="&#xf09a;" d="M875 739v-778c0-27-22-48-48-48h-223v338h113l17 132h-130v85c0 38 10 64 65 64h70v118c-12 2-54 6-102 6-101 0-170-62-170-175v-98h-114v-132h114v-339h-419c-26 0-48 22-48 49v778c0 27 22 49 48 49h779c26 0 48-22 48-49z" horiz-adv-x="875" />

<glyph glyph-name="github" unicode="&#xf09b;" d="M324 74c0-4-4-7-10-7-7-1-11 2-11 7 0 4 4 7 10 7 6 0 11-3 11-7z m-61 9c2 4 7 6 12 4 6-2 10-6 9-10-1-4-7-6-12-4-6 1-10 6-9 10z m87 3c5 1 11-2 11-6 1-4-3-7-9-9-6-1-11 2-11 5-1 5 3 9 9 10z m128 748c271 0 491-205 491-476 0-217-133-402-328-467-25-5-34 11-34 24 0 16 1 97 1 163 0 46-15 75-33 91 109 12 224 27 224 215 0 54-19 81-51 115 6 13 22 65-5 133-40 13-134-53-134-53-39 11-81 17-123 17s-84-6-123-17c0 0-94 66-134 53-27-67-11-120-6-133-31-34-46-61-46-115 0-187 111-203 220-215-14-13-27-35-32-66-27-13-99-35-142 41-27 46-75 50-75 50-48 1-3-30-3-30 32-15 54-72 54-72 29-87 165-58 165-58 0-41 1-108 1-120 0-12-9-28-34-23-195 65-331 250-331 467 0 271 207 476 478 476z m-288-673c2 2 7 1 10-2 3-4 4-8 1-10-2-3-7-1-10 2-3 3-4 8-1 10z m-21 16c1 2 4 2 8 1 4-2 6-5 5-8-2-2-6-3-9-1-4 2-6 5-4 8z m63-70c3 3 8 3 13-2 4-4 5-9 2-12-2-3-8-3-12 2-5 4-6 10-3 12z m-22 29c3 2 8 0 11-4 3-5 3-10 0-12-3-2-8 0-11 4-3 5-3 10 0 12z" horiz-adv-x="968.8" />

<glyph glyph-name="pinterest" unicode="&#xf0d2;" d="M969 350c0-268-217-484-485-484-50 0-98 7-143 21 20 32 49 85 60 127 6 23 30 116 30 116 16-31 62-56 111-56 146 0 252 134 252 301 0 160-131 280-299 280-209 0-320-140-320-293 0-71 38-160 98-188 9-4 14-2 16 7 2 6 10 39 14 54 1 5 0 10-4 14-19 25-35 69-35 111 0 107 81 210 218 210 119 0 203-81 203-197 0-131-66-222-153-222-47 0-83 39-71 88 13 57 40 119 40 161 0 37-20 68-61 68-49 0-88-50-88-118 0-43 14-71 14-71s-48-203-56-241c-10-42-6-101-2-139-180 70-308 246-308 451 0 268 217 484 484 484s485-216 485-484z" horiz-adv-x="968.8" />

<glyph glyph-name="pinterest-square" unicode="&#xf0d3;" d="M875 694v-688c0-52-42-94-94-94h-479c19 32 43 79 53 116 6 23 30 114 30 114 16-29 61-55 110-55 145 0 249 133 249 299 0 158-129 277-296 277-207 0-317-139-317-291 0-70 38-157 98-185 9-5 13-3 16 6 1 7 9 39 13 54 1 5 0 9-3 14-20 24-36 68-36 109 0 106 80 209 216 209 118 0 201-81 201-196 0-129-66-219-151-219-47 0-82 39-71 87 13 57 40 118 40 159 0 104-148 90-148-48 0-43 14-72 14-72-61-259-70-262-57-376l4-2h-173c-52 0-94 42-94 94v688c0 52 42 94 94 94h687c52 0 94-42 94-94z" horiz-adv-x="875" />

<glyph glyph-name="google-plus-square" unicode="&#xf0d4;" d="M781 788c52 0 94-42 94-94v-688c0-52-42-94-94-94h-687c-52 0-94 42-94 94v688c0 52 42 94 94 94h687z m-461-633c113 0 188 79 188 190 0 13-1 23-3 33h-185v-67h111c-4-29-33-85-110-85-67 0-121 56-121 124 0 68 54 123 121 123 38 0 63-16 77-30l53 51c-34 32-78 51-131 51-108 0-195-87-195-195s87-195 195-195z m430 160v57h-57v56h-57v-56h-56v-57h56v-57h57v57h57z" horiz-adv-x="875" />

<glyph glyph-name="google-plus-g" unicode="&#xf0d5;" d="M754 404c4-19 6-38 6-63 0-214-144-366-360-366-207 0-375 168-375 375s168 375 375 375c101 0 186-37 251-98l-102-98c-27 27-76 58-149 58-128 0-232-106-232-237s104-237 232-237c148 0 204 107 213 162h-213v129h354v0z m362-13h109v-109h-109v-109h-109v109h-109v109h109v109h109v-109z" horiz-adv-x="1250" />

<glyph glyph-name="linkedin-in" unicode="&#xf0e1;" d="M196-25h-181v584h181v-584z m-91 664c-58 0-105 48-105 106s47 105 105 105 105-47 105-105-47-106-105-106z m770-664h-181v284c0 68-1 155-94 155-95 0-109-74-109-150v-289h-181v584h174v-79h2c24 45 84 94 172 94 183 0 217-121 217-278v-321h0z" horiz-adv-x="875" />

<glyph glyph-name="laptop" unicode="&#xf109;" d="M1219 38c17 0 31-15 31-32v-31c0-69-56-125-125-125h-1000c-69 0-125 56-125 125v31c0 17 14 32 31 32h468c-1-29 27-63 64-63h118c36 0 63 24 64 63h474z m-94 718v-656h-1000v656c0 52 42 94 94 94h812c52 0 94-42 94-94z m-125-531v500h-750v-500h750z" horiz-adv-x="1250" />

<glyph glyph-name="quote-left" unicode="&#xf10d;" d="M429 314v-214q0-45-32-76t-76-31h-214q-44 0-76 31t-31 76v393q0 58 23 111t61 91 91 61 111 23h35q15 0 26-11t10-25v-72q0-14-10-25t-26-10h-35q-59 0-101-42t-42-101v-18q0-22 16-38t37-16h125q45 0 76-31t32-76z m500 0v-214q0-45-32-76t-76-31h-214q-44 0-76 31t-31 76v393q0 58 23 111t61 91 91 61 111 23h35q15 0 26-11t10-25v-72q0-14-10-25t-26-10h-35q-59 0-101-42t-42-101v-18q0-22 16-38t37-16h125q45 0 76-31t32-76z" horiz-adv-x="928.6" />

<glyph glyph-name="quote-right" unicode="&#xf10e;" d="M429 671v-392q0-58-23-111t-61-91-91-61-111-23h-36q-14 0-25 11t-11 25v71q0 15 11 25t25 11h36q59 0 101 42t42 101v17q0 23-16 38t-38 16h-125q-44 0-76 31t-31 76v214q0 45 31 76t76 32h214q45 0 76-32t32-76z m500 0v-392q0-58-23-111t-61-91-91-61-111-23h-36q-14 0-25 11t-11 25v71q0 15 11 25t25 11h36q59 0 101 42t42 101v17q0 23-16 38t-38 16h-125q-44 0-76 31t-31 76v214q0 45 31 76t76 32h214q45 0 76-32t32-76z" horiz-adv-x="928.6" />

<glyph glyph-name="angle-down" unicode="&#xf110;" d="M132 513l368-368 368 368 45-45-390-390-23-22-22 22-391 390z" horiz-adv-x="1000" />

<glyph glyph-name="angle-left" unicode="&#xf111;" d="M595 716l45-45-322-321 322-321-45-45-344 344-21 22 21 23z" horiz-adv-x="1000" />

<glyph glyph-name="angle-right" unicode="&#xf112;" d="M405 716l344-343 22-23-22-22-344-344-45 45 322 321-322 321z" horiz-adv-x="1000" />

<glyph glyph-name="github-alt" unicode="&#xf113;" d="M364 208c0-41-22-108-72-108-51 0-72 67-72 108 0 41 21 108 72 108 50 0 72-67 72-108z m574 99c0-63-7-129-35-186-74-150-277-146-423-146-148 0-364-5-440 146-29 57-40 123-40 186 0 82 27 159 81 222-10 30-15 63-15 95 0 42 10 63 29 101 88 0 145-18 212-70 57 13 115 19 173 19 53 0 106-5 157-18 67 52 123 69 211 69 19-38 28-59 28-101 0-32-5-64-15-94 54-64 77-141 77-223z m-126-99c0 86-52 161-144 161-37 0-72-6-109-11-29-5-58-7-88-7-30 0-59 2-88 7-37 5-72 11-110 11-91 0-143-75-143-161 0-171 157-198 294-198h94c137 0 294 26 294 198z m-161 108c50 0 71-67 71-108 0-41-21-108-71-108-51 0-72 67-72 108 0 41 21 108 72 108z" horiz-adv-x="937.5" />

<glyph glyph-name="arrow-down" unicode="&#xf11f;" d="M469 725h62v-627l212 212 45-45-265-266-23-21-22 21-266 266 45 45 212-212v627z" horiz-adv-x="1000" />

<glyph glyph-name="arrow-left" unicode="&#xf120;" d="M415 638l45-45-212-212h627v-62h-627l212-212-45-45-266 266-21 22 21 23z" horiz-adv-x="1000" />

<glyph glyph-name="arrow-right" unicode="&#xf121;" d="M585 638l266-265 21-23-21-22-266-266-45 45 212 212h-627v62h627l-212 212z" horiz-adv-x="1000" />

<glyph glyph-name="arrow-up" unicode="&#xf122;" d="M500 722l23-21 265-266-45-45-212 212v-627h-62v627l-212-212-45 45 266 266z" horiz-adv-x="1000" />

<glyph glyph-name="arrows" unicode="&#xf123;" d="M125 725h31 250v-62h-174l268-268 268 268h-174v62h250 31v-31-250h-62v174l-268-268 268-268v174h62v-250-31h-31-250v63h174l-268 267-268-267h174v-63h-250-31v31 250h63v-174l267 268-267 268v-174h-63v250 31z" horiz-adv-x="1000" />

<glyph glyph-name="balance-scale" unicode="&#xf12b;" d="M500 694c40 0 75-27 88-63h225v-62h-44l8-16 125-219 4-7v-8c0-86-70-156-156-156s-156 70-156 156v8l4 7 125 219 8 16h-143c-10-26-30-47-57-57v-412h125v-62h-312v62h125v412c-27 10-47 30-57 57h-143l8-16 125-219 4-7v-8c0-86-70-156-156-156s-156 70-156 156v8l4 7 125 219 8 16h-43v62h224c13 36 48 63 88 63z m0-63c-18 0-31-13-31-31s13-31 31-31 31 13 31 31-13 31-31 31z m-250-157l-71-124h142z m500 0l-71-124h142z m-586-186c13-37 45-63 86-63s73 26 86 63h-172z m500 0c13-37 45-63 86-63s73 26 86 63h-172z" horiz-adv-x="1000" />

<glyph glyph-name="bars" unicode="&#xf131;" d="M125 631h750v-62h-750v62z m0-250h750v-62h-750v62z m0-250h750v-62h-750v62z" horiz-adv-x="1000" />

<glyph glyph-name="maxcdn" unicode="&#xf136;" d="M901-15h-191l102 474c4 20 2 39-9 51-10 12-27 18-47 18h-96l-117-543h-190l116 543h-163l-116-543h-190l116 543-87 187h727c77 0 147-32 192-88 45-56 62-132 46-207z" horiz-adv-x="998" />

<glyph glyph-name="html5" unicode="&#xf13b;" d="M0 788h750l-68-773-308-103-306 103z m602-250l9 93h-471l25-284h326l-12-122-105-28-104 28-7 74h-93l11-148 193-53h2v1l191 52 27 290h-343l-8 97h359z" horiz-adv-x="750" />

<glyph glyph-name="css3" unicode="&#xf13c;" d="M938 788l-125-719-437-157-376 157 38 185h160l-15-79 227-87 262 87 37 189h-651l31 160h652l20 103h-651l32 161h796z" horiz-adv-x="937.5" />

<glyph glyph-name="binoculars" unicode="&#xf145;" d="M344 694c58 0 105-40 119-94h74c14 54 61 94 119 94 62 0 111-45 121-104 60-15 110-54 133-109v-1l1-1 71-199c12-27 18-56 18-86 0-121-98-219-219-219-108 0-199 80-216 184-16-17-40-28-65-28s-48 11-65 28c-17-104-108-184-216-184-121 0-219 98-219 219 0 34 8 67 23 96l66 186h1c22 61 74 99 133 114 10 59 59 104 121 104z m0-63c-37 0-63-25-63-62v-29l-28-2c-48-6-86-34-105-82v-1l-23-64c28 14 60 22 94 22 91 0 169-57 202-137 17 26 46 43 79 43s62-17 79-43c33 80 111 137 202 137 34 0 66-9 95-23l-23 66c-1 1-1 2-1 2-18 42-58 75-105 80l-28 2v29c0 37-26 62-63 62s-62-25-62-62v-31h-31-125-32v31c0 37-25 62-62 62z m-125-281c-63 0-117-37-142-91 0-1 0-2-1-4-8-19-13-39-13-61 0-87 69-156 156-156s156 69 156 156-70 156-156 156z m562 0c-86 0-156-70-156-156s70-156 156-156 157 69 157 156-70 156-157 156z m-281-94c-18 0-31-13-31-31s13-31 31-31 31 13 31 31-13 31-31 31z" horiz-adv-x="1000" />

<glyph glyph-name="bookmark-o" unicode="&#xf150;" d="M219 694h31 500 31v-31-625-63l-50 37-231 174-231-174-50-37v63 625 31z m62-63v-531l200 150 19 14 19-14 200-150v531h-438z" horiz-adv-x="1000" />

<glyph glyph-name="btc" unicode="&#xf15a;" d="M606 376c90-21 146-75 135-195-14-150-120-190-279-198v-133h-95v130c-24 0-49 0-75 1v-131h-94v133s-18 0-191 0l19 113c68-1 99-7 104 32v424c-9 48-48 43-123 42v101c115-1 156-1 191 0v155h94v-152c26 1 51 1 75 1v151h95v-155c122-11 214-48 225-160 8-82-27-131-81-159z m-312 211v-189c54 0 221-12 221 94 0 112-167 95-221 95z m0-491c64 0 260-14 260 104 0 121-196 104-260 104v-208z" horiz-adv-x="748" />

<glyph glyph-name="calendar" unicode="&#xf15c;" d="M281 725h63v-31h312v31h63v-31h94 31v-31-625-32h-31-625-32v32 625 31h32 93v31z m-62-94v-62h562v62h-62v-31h-63v31h-312v-31h-63v31h-62z m0-125v-437h562v437h-562z m187-62h63v-63h-63v63z m125 0h63v-63h-63v63z m125 0h63v-63h-63v63z m-375-125h63v-63h-63v63z m125 0h63v-63h-63v63z m125 0h63v-63h-63v63z m125 0h63v-63h-63v63z m-375-125h63v-63h-63v63z m125 0h63v-63h-63v63z m125 0h63v-63h-63v63z" horiz-adv-x="1000" />

<glyph glyph-name="youtube" unicode="&#xf167;" d="M1074 608c22-84 22-259 22-259s0-174-22-258c-13-46-49-81-95-94-83-22-416-22-416-22s-334 0-417 22c-46 13-82 48-94 94-23 84-23 258-23 258s0 175 23 259c12 46 48 82 94 95 83 22 417 22 417 22s333 0 416-22c46-13 82-49 95-95z m-621-417l279 158-279 159v-317z" horiz-adv-x="1125" />

<glyph glyph-name="xing" unicode="&#xf168;" d="M318 440c-4-7-49-87-137-241-10-17-21-25-35-25h-127c-15 0-24 15-16 28l134 237c1 0 1 1 0 1l-85 148c-9 15 0 27 16 27h127c15 0 26-8 36-24z m429 320l-281-494v-1l179-325c8-14 0-28-17-28h-127c-15 0-27 8-35 24l-181 329c7 12 101 178 283 499 9 16 21 24 34 24h129c15 0 24-14 16-28z" horiz-adv-x="750" />

<glyph glyph-name="xing-square" unicode="&#xf169;" d="M781 788c52 0 94-42 94-94v-688c0-52-42-94-94-94h-687c-52 0-94 42-94 94v688c0 52 42 94 94 94h687z m-507-563c10 0 18 5 25 17 63 111 95 168 98 173l-63 108c-6 11-15 17-25 17h-91c-11 0-17-9-12-20l62-105c0-1 0-1 0-1l-96-169c-6-10 1-20 11-20h91z m429 418c6 10 0 20-11 19h-92c-10 0-18-5-24-17-130-229-198-348-202-356l129-235c6-11 14-17 25-17h91c12 0 17 10 12 20l-128 233v0z" horiz-adv-x="875" />

<glyph glyph-name="dropbox" unicode="&#xf16b;" d="M516 623l-257-165 257-164-257-165-259 166 258 165-258 163 258 165z m-259-546l258 165 258-165-258-165z m259 218l258 165-258 163 257 165 258-165-258-165 258-164-258-165z" horiz-adv-x="1031.3" />

<glyph glyph-name="stack-overflow" unicode="&#xf16c;" d="M568 243l-16-77-382 81 16 76z m99 170l-49-61-300 251 50 60z m-61-78l-32-71-354 165 32 71z m-94 453l233-314-63-46-233 313z m40-641v-78h-391v78h391z m77-156v234h78v-313h-702v313h78v-234h546z" horiz-adv-x="750" />

<glyph glyph-name="instagram" unicode="&#xf16d;" d="M438 575c124 0 224-101 224-225 0-124-100-224-224-224-124 0-225 100-225 224 0 124 101 225 225 225z m0-371c80 0 146 66 146 146 0 81-66 146-146 146-81 0-146-65-146-146 0-80 65-146 146-146z m286 380c0-29-24-53-53-53-29 0-52 24-52 53s23 52 52 52 53-23 53-52z m148-53c4-73 4-289 0-361-3-70-19-132-70-184-52-51-114-67-184-70-72-5-289-5-361 0-70 3-132 19-183 70s-68 114-71 184c-4 72-4 289 0 361 3 70 19 132 71 183s113 67 183 71c72 4 289 4 361 0 70-4 132-20 184-71 51-51 67-113 70-183z m-93-439c23 58 18 195 18 258 0 64 5 201-18 258-15 39-45 68-83 83-58 23-195 18-258 18-64 0-201 5-258-18-39-15-68-44-83-83-23-57-18-194-18-258 0-63-5-200 18-258 15-38 44-68 83-83 57-23 194-18 258-18 63 0 200-5 258 18 38 15 68 45 83 83z" horiz-adv-x="875" />

<glyph glyph-name="flickr" unicode="&#xf16e;" d="M781 788c52 0 94-42 94-94v-688c0-52-42-94-94-94h-687c-52 0-94 42-94 94v688c0 52 42 94 94 94h687z m-499-561c69 0 124 55 124 124s-55 124-124 124-124-55-124-124 56-124 124-124z m311 0c68 0 124 55 124 124s-56 124-124 124-124-55-124-124 55-124 124-124z" horiz-adv-x="875" />

<glyph glyph-name="adn" unicode="&#xf170;" d="M484 523l127-193h-253z m485-173c0-267-217-484-485-484s-484 217-484 484 217 484 484 484 485-217 485-484z m-195-161l-290 435-289-435h59l66 101h329l66-101h59z" horiz-adv-x="968.8" />

<glyph glyph-name="bitbucket" unicode="&#xf171;" d="M32 788l911 0c2 0 4 0 6 0 17-3 28-19 26-36l-133-814c-2-16-16-27-31-27h-636c-21 1-39 16-42 36l-133 805c0 2 0 4 0 5 0 18 15 32 32 31z m558-581l49 287h-307l55-287h203z" horiz-adv-x="974.6" />

<glyph glyph-name="tumblr" unicode="&#xf173;" d="M605-88c-26-28-98-62-190-62-236 0-287 173-287 275v281h-93c-11 0-20 9-20 19v133c0 14 9 27 23 32 121 42 159 148 164 228 2 22 13 32 32 32h138c11 0 20-9 20-19v-225h162c11 0 19-9 19-20v-159c0-11-8-20-19-20h-163v-260c0-67 46-105 133-70 9 4 17 6 24 4 7-1 12-6 15-15l43-126c3-10 6-21-1-28z" horiz-adv-x="623" />

<glyph glyph-name="tumblr-square" unicode="&#xf174;" d="M781 788c52 0 94-42 94-94v-688c0-52-42-94-94-94h-687c-52 0-94 42-94 94v688c0 52 42 94 94 94h687z m-160-712c4 5 2 12 0 18l-27 79c-2 5-4 8-9 9-4 1-10 0-15-3-55-21-83 2-83 44v163h101c7 0 12 5 12 12v100c0 6-5 12-12 12h-101v140c0 7-6 13-12 13h-87c-11 0-18-7-19-20-4-51-27-117-103-143-9-3-14-11-14-20v-83c0-7 5-12 12-12h58v-176c0-63 32-171 180-171 58 0 102 20 119 38z" horiz-adv-x="875" />

<glyph glyph-name="certificate" unicode="&#xf178;" d="M500 756c20 0 39-6 56-18l51-36 59-8h1c41-5 74-38 79-79 0-1 1-1 1-2h-1l12-59 36-52c24-33 23-77 1-112v-1l-1-1-36-52-8-58 98-149 32-48h-58-91l-37-84-22-53-32 49-99 148c-26-12-56-11-82 0l-99-148-32-49-22 53-36 84h-92-58l32 48 101 154-10 53-37 52c-24 33-23 78-1 113v1l1 1 36 47 8 61v1l1 1c9 40 40 71 80 80l1 1h1l60 8 51 36c17 12 37 18 56 18z m0-63c-7 0-14-2-19-6l-56-40-7-5-8-1-65-9c-1 0-1-1-1-1-15-4-28-16-31-31-1 0-1 0-1-1l-9-65-1-9-5-6-39-51c-10-15-9-33-1-44l40-55 5-6 1-8 12-71v-1-1c1-5 2-9 4-12 5-8 12-13 22-14h1l68-9 9-1 6-5 51-39c15-10 33-9 44-1l55 40 6 5 8 1 71 12h1 1c8 1 14 5 19 10v1l2 1c2 4 4 8 5 14v1l9 68 1 8 5 7 39 54c10 15 9 33 1 43l-40 56-5 6-1 7-12 69v1 1c-2 14-12 24-26 25h-1l-68 10-8 1-7 5-55 40c-6 4-13 6-20 6z m216-476c-13-10-28-17-45-19-1 0-1-1-2-1v1l-62-11-14-11 66-101 22 49 8 20h20 55z m-432-1l-48-72h55 21l7-20 22-49 66 100-13 11-60 8c0 0-1 0-1 0-19 2-35 10-49 22z" horiz-adv-x="1000" />

<glyph glyph-name="apple" unicode="&#xf179;" d="M615 325c0-3-7-119 120-179-24-72-105-232-200-233-55 0-87 35-149 35-64 0-99-34-148-35-95-3-185 173-210 244-19 55-28 108-28 159 0 173 116 258 225 260 53 0 120-38 149-38 28 0 104 45 173 40 73-6 129-35 165-87-65-40-98-94-97-166z m-111 321c-38-45-85-71-136-67-4 54 16 102 50 140 31 37 86 66 133 69 2-21 6-79-47-142z" horiz-adv-x="734.4" />

<glyph glyph-name="windows" unicode="&#xf17a;" d="M0 667l359 49v-346h-359v297z m0-634v293h359v-342z m398-55v348h477v-414z m0 744l477 66v-418h-477v352z" horiz-adv-x="875" />

<glyph glyph-name="android" unicode="&#xf17b;" d="M175 451v-227c0-30-24-54-54-54-30 0-58 25-58 54v227c0 29 28 53 58 53 30 0 54-24 54-53z m21-307v350h483v-350c0-32-26-58-57-58h-40v-119c0-72-108-72-108 0v119h-73v-119c0-72-108-72-108 0l0 119h-39c-32 0-58 26-58 58z m485 369h-487c0 84 50 157 124 194l-37 69c-6 10 8 16 13 8l38-70c68 31 146 29 211 0l38 70c5 8 19 2 13-8l-37-69c74-37 124-110 124-194z m-334 109c0 11-9 20-20 20-12 0-20-9-20-20 0-11 9-21 20-21 11 0 20 10 20 21z m222 0c0 11-9 20-20 20-12 0-21-9-21-20 0-11 9-21 21-21 11 0 20 10 20 21z m185-118c30 0 59-23 59-53v-227c0-29-29-54-59-54-30 0-54 24-54 54v227c0 30 24 53 54 53z" horiz-adv-x="875" />

<glyph glyph-name="linux" unicode="&#xf17c;" d="M431 609c-2 1-6 1-6 4-1 0 0 1 1 2 3 1 7 1 11 0 2-2 6-3 6-6 0-2-4-3-6-3-2 0-4 2-6 3z m-42-3c-2 0-6 1-6 3 0 2 4 4 6 5 4 2 8 2 11 1 1-1 2-2 1-3-1-2-4-2-7-3-2-1-3-3-5-3z m431-545c22-24 31-42 31-58-1-16-13-27-28-35-29-18-72-31-99-63-28-33-62-52-94-55-32-2-63 12-79 45v0c-2 4-4 9-5 13-42-2-78 11-107 8-43-2-70-12-95-13-9-20-28-34-50-39-32-7-71 0-110 20-36 19-82 18-115 25-17 3-32 10-40 24-7 14-6 34 5 62 3 10 0 25-2 40-1 8-2 16-2 23 0 9 1 17 5 25 9 16 23 23 36 28 13 5 25 8 34 16 10 11 19 28 32 40-5 33 0 69 12 104 25 74 77 145 114 189 31 44 40 80 43 126 3 62-47 264 153 264 158 0 149-167 148-256-1-59 32-99 65-141 30-35 68-87 91-145 18-48 25-102 7-155 3-1 5-2 8-4 3-1 5-3 8-5 13-11 17-28 20-44 4-16 7-31 14-39z m-383 619c-6-15-8-30-6-43 7-2 18-5 26-9-4 24 8 46 23 45 17 0 27-30 18-53-2-4-6-7-8-9 13-5 21-8 25-10 15 19 21 52 8 79-19 42-67 43-86 0z m-80 22c-36 0-46-73-16-102 15 11 14 9 12 11-16 13-13 54 3 55 12 1 21-21 19-38 6 4 13 7 20 9 3 37-18 65-38 65z m-26-119c-8-6-11-14-8-24 3-9 12-20 28-29 16-9 24-23 39-30 6-2 12-3 19-4 36-2 53 22 75 29 23 7 39 22 44 36 6 16-4 28-20 35-22 10-32 10-44 18-21 13-37 18-51 18-28 0-45-19-55-28-1-1-15-12-27-21z m6-652c4 40-61 96-80 135l-38 69c-13 18-27 29-43 31-15 3-24-2-34-13-10-10-18-24-28-35-16-13-18-12-39-20-12-4-22-8-28-22-6-9-5-23-2-39 2-15 6-31 1-46v-1c-10-27-10-42-5-51 15-30 91-12 149-43 62-32 142-34 147 35z m-2 51c73-51 160-31 223 14 6 21 12 41 13 56 2 30 3 56 9 78 6 25 18 45 42 54 4 41 36 41 74 24 37-17 51-31 45-51 2 0 4 0 8 0 10 33-28 55-60 68 6 23 5 47-1 70-11 49-44 93-68 115-5 0-5-4 5-13 22-21 72-96 45-166-7 2-15 3-21 3-10 57-34 104-46 126-23 42-58 128-73 187-9-12-24-23-43-29-10-3-19-11-31-18-28-15-59-17-83 3-9 7-16 15-25 20-3 2-10 6-12 8-4-74-53-167-77-220-16-39-26-80-27-120-42 57-11 129 5 161 19 34 22 44 17 40-16-27-43-71-53-115-5-24-6-47 1-69s21-42 48-59c0 0 48-27 75-63 14-20 19-37 14-49-5-13-19-17-33-17 10-12 21-26 29-38z m502 22c1 10-6 26-26 48-20 22-14 65-34 81-13 12-26 11-44 10-15-17-50-38-75-31-22 5-35 31-37 57 0 0-1 0-2-1-13-7-21-21-26-41-5-20-7-46-9-76-1-23-12-51-19-79-7-26-11-49-2-71 14-28 38-40 66-38 27 3 59 20 85 50 43 52 122 58 123 91z m-498 556c-7 5-7 13-4 12 5 0 6-7 9-9 4-4 9-9 15-14 12-9 28-19 48-19s44 12 59 20c8 5 18 13 27 19 6 5 6 11 12 10 5 0 1-6-7-13-7-6-19-15-28-20-19-9-40-21-63-21-22 0-40 11-53 21-6 5-12 10-15 14z" horiz-adv-x="875" />

<glyph glyph-name="dribbble" unicode="&#xf17d;" d="M500 834c267 0 484-217 484-484s-217-484-484-484-484 217-484 484 217 484 484 484z m320-223c-8-12-78-101-231-163 15-30 25-54 37-81 137 17 274-11 288-14-1 98-36 188-94 258z m-46 48c-101 90-240 124-371 93 12-16 87-118 154-243 148 56 210 139 217 150z m-450 65c-116-55-202-161-229-290 19 0 189-1 383 51-69 121-143 224-154 239z m-238-375c0-106 41-203 107-276 67 115 203 236 352 278-10 23-21 47-33 70-207-62-407-59-425-59-1-4-1-8-1-13z m160-326c123-96 283-111 416-55-6 37-31 163-89 314-166-57-284-171-327-259z m485-17c93 63 159 163 178 278-15 4-129 38-258 17 54-148 76-269 80-295z" horiz-adv-x="1000" />

<glyph glyph-name="skype" unicode="&#xf17e;" d="M830 265c28-37 45-84 45-134 0-120-98-218-219-218-50 0-96 17-133 45-28-6-57-9-86-9-221 0-401 179-401 401 0 29 4 58 10 86-29 37-46 83-46 133 0 121 98 219 219 219 50 0 96-17 133-46 28 6 57 9 86 9 221 0 401-179 401-401 0-29-4-58-9-85z m-381-179c108 0 219 53 219 169 0 99-96 133-177 151-94 22-135 26-135 65 0 30 32 44 82 44 90 0 91-66 147-66 37 0 59 29 59 62 0 66-109 109-217 109-98 0-213-43-213-159 0-127 108-140 230-170 51-13 82-18 82-55 0-29-32-51-82-51-106 0-111 88-172 88-40 0-58-29-58-60 0-70 107-127 235-127z" horiz-adv-x="873" />

<glyph glyph-name="foursquare" unicode="&#xf180;" d="M631 844c78 0 99-44 83-127l-95-475c-8-28-18-77-87-77h-163c-6 0-7 0-13-6 0 0-4-5-256-297-20-23-52-19-64-14-12 5-36 19-36 59v847c0 35 24 90 98 90h533z m-32-144c4 19-10 34-26 34h-428c-19 0-32-17-32-32v-662c0-2 2-2 3 0 158 189 175 211 175 211 18 21 25 25 52 25h143c20 0 32 16 33 26 2 10 19 97 23 115 3 17-13 35-29 35h-177c-23 0-40 17-40 41v25c0 23 17 40 40 40h208c14 0 31 13 33 25z" horiz-adv-x="718.8" />

<glyph glyph-name="trello" unicode="&#xf181;" d="M766 788c60-1 109-50 109-110v-656c0-60-49-109-109-110h-657c-60 0-109 49-109 110 0 664 0 656 0 656 0 61 49 110 110 110h656z m-381-663h0v496c0 29-24 53-53 53h-161c-30 0-53-24-53-53v-496c0-29 24-52 53-52h161c29 0 52 23 53 52z m377 219v277c0 29-24 53-53 53h-158c-29 0-52-24-52-53v-277c0-29 23-53 52-53h158c30 0 53 24 53 53z" horiz-adv-x="873" />

<glyph glyph-name="gratipay" unicode="&#xf184;" d="M484 834c268 0 485-217 485-484s-217-484-485-484-484 217-484 484 217 484 484 484z m224-442c17 24 38 99-27 141-54 35-106 8-133-23-29-33-89-35-120 0-27 31-79 58-134 23-64-42-44-118-27-141l221-298z" horiz-adv-x="968.8" />

<glyph glyph-name="vk" unicode="&#xf189;" d="M1065 620c-15-67-155-264-156-265-12-19-17-29 0-51 7-9 155-149 177-218 9-32-7-48-40-48h-115c-44 0-57 35-135 113-68 65-98 74-115 74-36 0-30-12-30-143 0-28-9-44-82-44-122 0-256 74-351 210-143 200-182 351-182 382 0 17 7 33 40 33h115c29 0 40-13 52-45 56-164 151-308 190-308 15 0 21 7 21 44v170c-4 78-45 84-45 112 0 13 11 27 29 27h181c24 0 32-14 32-43v-228c0-24 11-33 19-33 14 0 27 9 53 36 83 92 142 235 142 235 7 17 20 33 50 33h115c35 0 42-18 35-43z" horiz-adv-x="1123" />

<glyph glyph-name="weibo" unicode="&#xf18a;" d="M795 503c15 47-26 92-73 82-43-10-56 55-14 64 98 21 180-73 149-166-13-41-75-21-62 20z m-375-526c-208 0-420 101-420 267 0 86 55 186 149 280 195 195 397 198 339 12-8-26 24-12 24-12 155 66 275 33 223-101-7-18 2-21 16-25 265-83 68-421-331-421z m280 286c-10 109-153 184-319 168-166-17-291-118-280-227 11-109 153-183 319-167 166 17 291 118 280 226z m-20 518c199 43 369-145 307-340-16-49-88-24-73 24 45 139-77 271-218 242-49-11-67 64-16 74z m-154-607c-33-76-130-117-213-90-80 25-113 104-79 175 35 69 124 108 202 88 82-21 124-98 90-173z m-168 59c-26 10-59-1-75-26-16-25-8-54 17-66 26-12 60-1 77 25 15 26 7 56-19 67z m63 26c-10 3-22-1-28-11-5-10-2-20 8-25 10-4 22 1 28 11 6 10 2 21-8 25z" horiz-adv-x="998" />

<glyph glyph-name="renren" unicode="&#xf18b;" d="M418 520c0-216-119-401-288-483-71 84-114 193-114 312 0 240 174 438 402 477v-306z m80-654c-84 0-163 21-231 59 111 70 202 177 231 302 30-125 121-232 232-302-68-38-147-59-232-59z m372 171c-169 82-288 267-288 483v306c228-39 402-237 402-477 0-119-43-228-114-312z" horiz-adv-x="1000" />

<glyph glyph-name="pagelines" unicode="&#xf18c;" d="M750 239c-108-267-365-105-365-105-79-160-210-263-361-263-31 0-32 47 0 47 126 1 235 84 307 215-80-31-232-54-316 161 213 88 311-22 349-89 19 48 33 100 42 156 0 0-273-43-292 191 233 94 298-149 298-149 3 32 6 102 6 104 0 0-207 144-74 323 243-84 120-318 120-318 1-3 1-46 0-65 0 0 88 174 266 112-8-261-277-207-277-207-8-54-22-105-39-152 0 0 162 180 336 39z" horiz-adv-x="750" />

<glyph glyph-name="stack-exchange" unicode="&#xf18d;" d="M35 201h806v-43c0-74-58-133-128-133h-37l-170-175v175h-344c-70 0-127 59-127 133v43z m0 46v166h806v-166h-806z m0 214v166h806v-166h-806z m678 389c70 0 127-59 128-132v-44h-806v44c0 73 57 132 127 132h551z" horiz-adv-x="875" />

<glyph glyph-name="clock-o" unicode="&#xf18f;" d="M500 725c207 0 375-168 375-375s-168-375-375-375-375 168-375 375 168 375 375 375z m0-62c-173 0-312-140-312-313s139-312 312-312 313 139 313 312-140 313-313 313z m-31-63h62v-219h157v-62h-188-31v31 250z" horiz-adv-x="1000" />

<glyph glyph-name="close" unicode="&#xf191;" d="M226 669l274-274 274 274 45-45-274-274 274-274-45-45-274 274-274-274-45 45 274 274-274 274z" horiz-adv-x="1000" />

<glyph glyph-name="vimeo-square" unicode="&#xf194;" d="M781 788c52 0 94-42 94-94v-688c0-52-42-94-94-94h-687c-52 0-94 42-94 94v688c0 52 42 94 94 94h687z m-31-293c3 82-27 123-91 125-87 3-145-46-176-146 38 16 95 20 88-44-2-21-16-53-42-94-73-115-90-76-130 177-12 71-42 104-90 100-43-4-112-75-184-138l29-38c28 20 45 30 49 30 41 0 62-106 111-286 25-67 56-101 92-101 59 0 131 55 216 166 82 105 125 189 128 249z" horiz-adv-x="875" />

<glyph glyph-name="slack" unicode="&#xf198;" d="M184 235c0-51-41-92-92-92-51 0-92 41-92 92 0 50 41 92 92 92h92v-92z m46 0c0 50 42 92 92 92 51 0 92-42 92-92v-231c0-50-41-92-92-92-50 0-92 42-92 92v231z m92 369c-50 0-92 41-92 92 0 50 42 92 92 92 51 0 92-42 92-92v-92h-92z m0-47c51 0 92-41 92-92 0-50-41-91-92-91h-230c-51 0-92 41-92 91 0 51 41 92 92 92h230z m369-92c0 51 42 92 92 92 51 0 92-41 92-92 0-50-41-91-92-91h-92v91z m-46 0c0-50-41-91-92-91-51 0-92 41-92 91v231c0 50 41 92 92 92 51 0 92-42 92-92v-231z m-92-369c51 0 92-41 92-92 0-50-41-92-92-92-51 0-92 42-92 92v92h92z m0 47c-51 0-92 41-92 92 0 50 41 92 92 92h230c51 0 92-42 92-92 0-51-41-92-92-92h-230z" horiz-adv-x="875" />

<glyph glyph-name="wordpress" unicode="&#xf19a;" d="M121 519l198-543c-139 67-234 210-234 374 0 60 13 117 36 169z m660-148c0-36-14-77-32-134l-41-139-150 447c25 1 47 4 47 4 22 2 20 35-3 34 0 0-67-5-110-5-41 0-110 5-110 5-22 1-25-33-2-34 0 0 21-3 43-4l65-177-91-273-151 450c25 1 47 4 47 4 22 2 20 35-3 34 0 0-67-5-110-5-8 0-17 0-27 0 74 113 202 188 347 188 108 0 207-42 281-110-2 1-4 1-6 1-41 0-69-36-69-74 0-34 19-63 40-97 16-28 35-64 35-115z m-274-57l128-350c1-2 2-4 3-6-43-15-90-24-138-24-41 0-80 6-117 17z m358 235c32-59 50-127 50-199 0-153-83-287-206-359l127 367c24 59 31 107 31 149 0 15-1 29-2 42z m119-199c0-267-217-484-484-484-267 0-484 217-484 484 0 267 217 484 484 484 267 0 484-217 484-484z m-22 0c0 255-207 462-462 462-255 0-462-207-462-462s207-462 462-462c255 0 462 207 462 462z" horiz-adv-x="1000" />

<glyph glyph-name="openid" unicode="&#xf19b;" d="M530 6l-132-62c-225 20-398 139-398 285 0 139 161 255 374 281v-84c-139-24-242-103-242-197 0-100 115-183 265-202v664l133 65v-750h0z m345 276l-256 55 71 41c-38 22-84 39-136 48v84c90-11 171-38 235-77l68 39z" horiz-adv-x="875" />

<glyph glyph-name="yahoo" unicode="&#xf19e;" d="M492 280l8-430c-25 4-46 8-63 8-16 0-38-4-63-8l8 430c-108 185-216 384-340 570 23-6 45-8 65-8 17 0 40 2 66 8 80-141 161-271 264-440 73 120 178 281 263 440 22-6 43-8 65-8 22 0 45 2 68 8-67-94-257-424-341-570z" horiz-adv-x="873" />

<glyph glyph-name="reddit" unicode="&#xf1a1;" d="M394 253c-27 0-49 22-49 48 0 27 22 49 49 49 26 0 48-22 48-49 0-26-22-48-48-48z m590 97c0-268-216-484-484-484s-484 216-484 484 216 484 484 484 484-216 484-484z m-258 81c-18 0-35-8-46-20-44 30-103 50-169 52l34 153 109-25c0-26 21-48 48-48 27 0 48 22 48 49 0 27-21 49-48 49-19 0-36-12-44-27l-119 26c-6 2-12-2-14-8l-37-169c-65-3-123-22-167-52-12 12-29 20-47 20-68 0-90-92-28-123-2-10-3-20-3-30 0-103 115-186 257-186 143 0 259 83 259 186 0 10-1 21-4 30 61 32 39 123-29 123z m-135-227c5 4 12 4 17 0 5-5 5-13 0-17-45-45-171-45-216 0-4 4-4 12 0 17 5 4 12 4 17 0 34-35 147-36 182 0z m15 146c28 0 49-22 49-49 0-26-22-48-49-48-26 0-48 22-48 48 0 27 22 49 48 49z" horiz-adv-x="1000" />

<glyph glyph-name="reddit-square" unicode="&#xf1a2;" d="M553 175c5-5 5-13 0-18-48-48-183-48-231 0-5 5-5 13 0 18 5 5 13 5 17 0 37-37 159-38 197 0 4 5 12 5 17 0z m-178 105c0-28-23-51-52-51-29 0-52 23-52 51 0 29 23 53 52 53 29 0 52-24 52-53z m177 53c29 0 52-24 52-53 0-28-23-51-52-51-29 0-52 23-52 51 0 29 23 53 52 53z m323 361v-688c0-52-42-94-94-94h-687c-52 0-94 42-94 94v688c0 52 42 94 94 94h687c52 0 94-42 94-94z m-195-275c-19 0-37-8-50-21-47 33-110 54-180 56l36 165 116-27c0-28 24-51 52-51 29 0 52 24 52 52 0 29-23 52-52 52-20 0-38-12-46-29l-129 29c-6 2-12-3-14-10l-40-181c-70-3-133-24-180-56-12 13-30 21-50 21-73 0-97-98-30-132-3-10-4-21-4-32 0-111 124-200 277-200 153 0 278 89 278 200 0 11-1 22-4 33 65 34 41 131-32 131z" horiz-adv-x="875" />

<glyph glyph-name="stumbleupon-circle" unicode="&#xf1a3;" d="M500 834c268 0 484-216 484-484s-216-484-484-484-484 216-484 484 216 484 484 484z m0-346c19 0 35-16 35-35v-40l44-21 67 20v46c0 79-66 142-146 142-79 0-146-63-146-141v-211c0-20-15-35-35-35s-34 15-34 35v89h-112v-91c0-81 65-146 146-146 80 0 146 64 146 144v209c0 19 16 35 35 35z m327-242c0 0 0 1 1 91h-112v-94c0-19-16-34-35-34-19 0-35 15-35 34v92l-66-20-45 21v-91c0-80 66-145 146-145 81 0 146 65 146 146z" horiz-adv-x="1000" />

<glyph glyph-name="stumbleupon" unicode="&#xf1a4;" d="M982 331v-137c0-121-98-219-219-219-121 0-220 97-220 217v137l67-31 100 30v-138c0-29 23-52 52-52s53 23 53 52v141h167z m-439 113v61c0 28-23 52-52 52s-52-24-52-52v-314c0-119-99-216-219-216-122 0-220 98-220 219v137h168v-134c0-30 23-53 52-53s52 23 52 53v317c0 117 101 211 219 211 119 0 219-95 219-213v-69l-100-30z" horiz-adv-x="980.5" />

<glyph glyph-name="delicious" unicode="&#xf1a5;" d="M872 717c2-7 3-15 3-23v-688c0-52-42-94-94-94h-687c-8 0-16 1-23 3-15 4-29 12-40 22-2 2-5 4-7 6-10 11-17 25-21 40-2 7-3 15-3 23v688c0 52 42 94 94 93h687c8 0 16-1 24-3 3 0 7-2 10-3 4-1 8-3 11-5 3-1 5-3 8-4 2-2 4-4 6-5 5-4 10-9 14-14 3-4 6-8 9-13 2-5 5-9 6-14 1-3 2-6 3-9z m-59-711v344h-375v375h-344c-17 0-31-14-31-31v-344h375v-375h343c17 0 32 14 32 31z" horiz-adv-x="875" />

<glyph glyph-name="digg" unicode="&#xf1a6;" d="M160 514v149h99v-490h-259v341h160z m0-261v180h-61v-180h61z m580 261h260v-476h-260v79h160v56h-160v341z m160-261v180h-60v-180h60z m-460-80v341h260v-476h-260v79h160v56h-160z m100 260v-180h60v180h-60z m-241 230h101v-100h-101v100z m0-149h101v-341h-101v341z" horiz-adv-x="1000" />

<glyph glyph-name="pied-piper-pp" unicode="&#xf1a7;" d="M401 509c0-41-28-74-62-74-14 0-25 2-33 7v133c8 5 19 8 33 8 34 0 62-33 62-74z m103-131c34 0 62-33 62-74 0-41-28-74-62-74-14 0-25 2-34 7v133c9 5 20 8 34 8z m371 316v-688c0-52-42-94-94-94h-687c-52 0-94 42-94 94v688c0 52 42 94 94 94h687c52 0 94-42 94-94z m-514-342c80 0 145 69 145 155s-65 156-145 156c-23 0-47-7-67-17h-89v-403l101 19v99c17-6 35-9 55-9z m310-50c0 86-65 156-145 156-6 0-12-1-18-2-8-24-20-46-38-65-27-29-63-46-101-48v-305l101 19v99c17-6 36-9 56-9 80 0 145 69 145 155z" horiz-adv-x="875" />

<glyph glyph-name="pied-piper-alt" unicode="&#xf1a8;" d="M477 370l-54-12-4 10c13 1 25 7 38 7 7 0 13-2 20-5z m265-387c19 0 55-88 64-108-70-26-137-31-207-19l-13 88c31 20 119 39 156 39z m-76 521c-15 7-125 13-193-19 12 23 25 33 50 42 54 21 79 60 115 100 24-16 24-48 62-45v-42l12-1c73 28 146 59 209 107 94 72 103 97 158 195l4 5c-1-27-12-53-24-78-60-124-154-196-287-228-24-5-51-6-73-17 3-19 26-35 26-45 0-7-11-14-15-17-22 25-31 38-44 43z m419 346l-1-3-1-1 1 2z m-116-746c40-67 86-106 142-156-60-38-137-63-202-93-108 91-45 450-218 450-6-2-4-1-9-4 3-3 6-5 8-8 46-39 65-47 68-114l0-19c2-42-10-83-19-124-50 2-100-21-152-5-1 11-2 60 1 80 2 19 65 58 64 85-11 2-18-5-24-13-26-38-92-82-139-82-33 0-110 140-150 168-6 4-10 10-15 17-31-8-272-63-288-63-12 0-22 9-22 21 0 11 6 21 17 23l273 59c-19 34 24 35 42 40 6 1 12 7 18 7 13 0 23-17 27-27 13 3 90 21 97 21 29 0 31-40 5-45l-102-22 0-9c-1-20 88-118 104-118 35 0 107 82 107 118 0 60-83 24-83 65 0 7 2 13 5 20l-38 10c26 27 27 62 21 99 29 5 53 9 81 9 111 0 90-17 128-106l28 14c-4-67-70-35-68-61l0-12c146 6 227-114 293-225z m-383-90h18l5-47-23-7v54z m-134 293l27 7 61-99-41-27z m165-302c44 5 64 12 116 12 1-2 2-6 2-9 0-14-97-24-114-27z" horiz-adv-x="1125" />

<glyph glyph-name="drupal" unicode="&#xf1a9;" d="M624 626c26-16 189-131 189-350 0-219-173-364-372-364-199 0-378 157-378 371 0 213 166 327 196 343 37 20 63 30 105 63 20 16 38 40 43 97 30-36 65-77 91-95 41-27 83-38 126-65z m5-636c8 8 4 26-8 17-17-13-54-28-107-28-67 0-100 26-100 26-12 0-22-14-13-23 52-48 189-31 228 8z m-106 103c-13-5-56-33-44-49 4-6 10-3 24 9 14 12 23 22 52 22 49 0 35-39 51-31 20 10-4 41-12 46-15 10-54 10-71 3z m180-34c77-6 126 207 31 207-39 0-118-81-160-82-48-1-115 96-212 95-129-1-177-153-101-205 112-76 255 83 315 82 38-2 97-95 127-97z" horiz-adv-x="875" />

<glyph glyph-name="joomla" unicode="&#xf1aa;" d="M1 670c0 65 53 118 117 118 59 0 106-43 116-98 63 14 131-2 188-59l-86-87c-40 40-84 32-109 7-28-28-28-74 0-102l195-194-86-87c-171 171-97 97-195 195-52 52-68 127-49 193-52 12-91 58-91 114z m253-227c56 55 159 158 195 195 52 52 126 68 192 49 8 57 57 101 116 101 64 0 117-53 117-118 0-59-45-108-102-116 19-65 5-137-56-198l-86 87c40 40 32 83 7 108-28 28-74 28-102 0-19-20-175-175-194-195z m520-297c57-8 101-57 101-116 0-65-52-117-117-117-57 0-104 40-115 94-68-22-146-5-200 54l86 87c39-40 83-32 108-7 28 28 28 74 0 101l-195 195 87 87c204-204 171-171 194-195 50-50 67-120 51-183z m-164 103c-171-170-132-132-195-194-50-50-120-67-184-51-12-53-58-92-114-92-65 0-117 53-117 118 0 55 38 102 90 114-16 64-1 133 58 192l86-87c-39-39-32-82-6-108 28-28 73-28 101 0 96 96 25 26 195 195z" horiz-adv-x="875" />

<glyph glyph-name="behance" unicode="&#xf1b4;" d="M453 387c85-24 127-89 127-175 0-141-119-201-244-201h-336v692h326c119 0 222-34 222-172 0-70-33-115-95-144z m-301 198v-162h154c55 0 93 24 93 83 0 63-49 79-104 79h-143z m163-457c62 0 112 22 112 92 0 71-42 99-109 99h-166v-191h163z m700 470h-281v68h281v-68z m110-344c0-9-1-18-1-26h-362c0-80 43-127 123-127 42 0 96 22 109 65h122c-38-115-115-169-235-169-158 0-256 108-256 264 0 150 103 265 256 265 157 0 244-124 244-272z m-362 61h224c-6 66-41 107-110 107-66 0-110-41-114-107z" horiz-adv-x="1125" />

<glyph glyph-name="behance-square" unicode="&#xf1b5;" d="M364 278c0-38-27-50-61-50h-88v103h90c36 0 59-15 59-53z m-15 161c0-32-21-45-50-45h-84v87h78c30 0 56-8 56-42z m259-46c37 0 56-22 59-58h-121c2 36 26 58 62 58z m267 301v-688c0-52-42-94-94-94h-687c-52 0-94 42-94 94v688c0 52 42 94 94 94h687c52 0 94-42 94-94z m-344-205h152v37h-152v-37z m-84-216c0 47-23 88-69 101 34 16 52 35 52 72 0 75-56 93-120 93h-177v-375h182c68 1 132 33 132 109z m295 29c0 80-47 147-132 147-83 0-139-62-139-143 0-85 54-143 139-143 65 0 107 29 127 92h-65c-8-24-37-36-59-36-44 0-67 26-67 69h196c0 5 0 10 0 14z" horiz-adv-x="875" />

<glyph glyph-name="steam" unicode="&#xf1b6;" d="M969 350c0-268-217-484-485-484-223 0-410 149-467 352l186-77c12-62 68-110 134-110 77 0 141 63 137 144l166 117c101-2 187 80 187 183 0 101-82 182-183 182s-183-82-183-182v-2l-116-168c-30 2-60-7-85-24l-260 108c20 249 229 445 484 445 268 0 485-216 485-484z m-665-251c39-16 83 3 99 41 17 39-2 83-40 100l-62 25c24 9 51 9 76-1 25-11 45-31 56-56s10-53-1-79c-21-52-82-77-134-55-20 8-44 31-53 50z m340 254c-68 0-122 55-122 122 0 67 54 122 122 122s121-55 121-122c0-67-54-122-121-122z m0 31c50 0 91 41 91 91 0 51-41 91-91 91-51 0-92-41-92-91 0-50 41-91 92-91z" horiz-adv-x="968.8" />

<glyph glyph-name="steam-square" unicode="&#xf1b7;" d="M362 154c15 36-2 77-39 92l-57 24c22 9 47 9 71-1 24-10 42-28 52-52 10-24 10-50 0-74-21-49-77-72-126-51-23 9-40 26-50 47l56-23c36-15 78 2 93 38z m419 634c52 0 94-42 94-94v-688c0-52-42-94-94-94h-687c-52 0-94 42-94 94v221l174-72c12-59 64-103 126-103 72 0 131 59 128 134l155 110c95-2 175 75 175 171 0 94-77 171-171 171s-172-77-172-171v-2l-108-157c-28 2-56-6-79-22l-228 94v314c0 52 42 94 94 94h687z m-194-435c-63 0-114 51-114 114s51 114 114 114 114-51 114-114c0-63-52-114-114-114z m0 28c47 0 86 39 86 86 0 47-39 86-86 86-47 0-86-39-86-86 0-47 39-86 86-86z" horiz-adv-x="875" />

<glyph glyph-name="dollar" unicode="&#xf1bb;" d="M469 756h62v-65c89-15 157-92 157-185v-31h-63v31c0 70-56 125-125 125-69 0-125-56-125-125 0-38 13-58 37-77s61-34 100-50 80-31 115-59 61-71 61-126c0-92-68-170-157-185v-65h-62v65c-89 15-156 92-156 185v31h62v-31c0-70 56-125 125-125 69 0 125 57 125 125 0 38-13 58-37 77s-61 35-100 51-80 31-115 58-60 71-60 126c0 92 67 170 156 185v65z" horiz-adv-x="1000" />

<glyph glyph-name="spotify" unicode="&#xf1bc;" d="M484 834c268 0 485-217 485-484s-217-484-485-484-484 217-484 484 217 484 484 484z m197-712c16 0 30 12 30 30s-7 24-19 32c-140 83-303 87-463 51-15-3-27-12-27-33 0-15 12-30 31-30 6 0 16 3 23 5 141 28 282 25 404-48 8-5 13-7 21-7z m53 128c21 0 37 17 38 38 0 17-7 29-23 38-96 58-218 89-345 89-81 0-137-11-191-26-20-6-31-20-31-41 0-21 17-38 38-38 9 0 14 3 24 5 162 44 344 15 466-57 7-4 13-8 24-8z m60 149c24 0 46 19 46 45 0 23-10 36-26 44-109 64-258 94-401 94-84 0-161-10-229-30-18-5-34-20-34-47 0-26 19-46 45-46 10 0 18 3 25 5 161 45 410 25 549-58 9-5 15-7 25-7z" horiz-adv-x="968.8" />

<glyph glyph-name="deviantart" unicode="&#xf1bd;" d="M625 668l-192-350 15-18h177v-250h-314l-27-18-85-164c-1 0-17-17-18-18h-181v182l182 351-14 18h-168v249h305l26 18 85 164c1 0 17 17 18 18h191v-182z" horiz-adv-x="625" />

<glyph glyph-name="soundcloud" unicode="&#xf1be;" d="M218 349l11-126-11-134c-1-5-5-8-9-8s-8 3-8 8l-11 134 11 126c0 5 4 9 8 9 4 0 8-4 9-9z m41 90c5 0 10-5 10-10l11-206-11-134c0-5-5-10-10-10-5 0-9 5-9 10l-10 134 10 206c0 5 4 10 9 10z m50 47c6 0 11-5 11-11l10-254-10-132c0-6-5-10-11-10-6 0-10 4-11 10l-8 132 8 254c1 6 5 11 11 11z m-295-189c3 0 4-2 5-5l11-69-11-69c-1-3-2-5-5-5-3 0-4 2-5 5l-9 69 9 69c1 3 2 5 5 5z m46 43c3 0 5-2 6-5l14-112-14-111c-1-2-3-5-6-5-3 0-5 3-5 6l-12 110 12 112c0 3 2 5 5 5z m50 22c3 0 6-3 6-6l13-133-13-129c0-3-3-6-6-6-4 0-6 3-7 6l-11 129 11 133c1 3 3 6 7 6z m49 4c4 0 7-2 8-7l12-136-12-133c-1-4-4-7-8-7-4 0-7 3-7 7l-11 133 11 136c0 5 3 7 7 7z m472 217c4-3 8-8 8-14l8-347-8-125c0-9-7-17-16-17s-17 8-18 17l-3 62-4 63 7 345v2c0 5 3 10 6 13 3 2 7 4 11 4 3 0 6-2 9-3z m-53-30c5-3 7-8 8-13l6-318-6-115 0-13c0-4-2-8-5-11-3-2-7-4-11-4-5 0-9 2-13 6-2 2-3 5-3 9v0c-6 128-6 129-6 129l6 314 0 3c0 5 3 10 7 13 3 2 6 3 9 3 3 0 6-1 8-3z m-217-44c6 0 11-5 12-12l9-274-9-132c-1-6-6-11-12-11-6 0-11 5-12 11l-8 132 8 274c0 7 6 12 12 12z m736-123c84 0 153-69 153-154 0-84-69-153-154-153h-426c-9 2-17 9-17 18v488c0 9 3 14 15 18 30 12 64 18 99 18 141 0 257-108 270-247 18 8 38 12 60 12z m-580 118c8 0 14-6 15-15l7-267-7-128c0-8-7-15-15-15s-15 7-15 15l-7 128 7 267c0 9 7 15 15 15z m-105 15c7 0 13-6 13-13l9-283-9-131c0-7-6-13-13-13-6 0-12 6-12 13l-8 131 8 283c0 7 6 13 12 13z m53-6c7 0 13-6 13-14l8-276-8-130c0-8-6-14-13-14s-13 6-14 14l-8 130 8 276c0 8 6 14 14 14z" horiz-adv-x="1248" />

<glyph glyph-name="edit" unicode="&#xf1c1;" d="M781 724c24 0 48-9 66-27 36-36 36-95 0-131l-309-310-7-7-9-1-110-22-46-10 10 46 22 110 1 9 7 7 310 309c18 18 41 27 65 27z m0-60c-7 0-14-4-21-11l-303-303-11-54 54 11 303 303c14 14 14 29 0 43-7 7-14 11-22 11z m-656-64h412l-62-62h-287v-500h500v287l62 62v-412h-625v625z" horiz-adv-x="1000" />

<glyph glyph-name="envelope" unicode="&#xf1c6;" d="M94 600h31 750 31v-31-500-31h-31-750-31v31 500 31z m135-62l271-181 272 181h-543z m-73-28v-410h688v410l-326-218-18-10-18 10z" horiz-adv-x="1000" />

<glyph glyph-name="vine" unicode="&#xf1ca;" d="M750 353v-102c-36-8-72-12-102-12-72-151-201-281-244-305-27-16-53-17-83 1-53 32-254 197-321 714h146c36-310 126-470 224-589 54 55 107 127 147 209-97 49-156 158-156 284 0 128 74 225 200 225 224 0 207-250 159-355 0 0-91-17-124 41 7 22 16 60 16 94 0 61-22 91-56 91-35 0-60-33-60-97 1-155 116-232 254-199z" horiz-adv-x="750" />

<glyph glyph-name="codepen" unicode="&#xf1cb;" d="M981 538c12-8 19-22 19-36v-304c0-14-7-28-19-36l-457-305c-16-10-32-9-48 0l-457 305c-12 8-19 22-19 36v304c0 14 7 28 19 36l457 305c16 10 32 9 48 0z m-438 189v-201l186-124 151 100z m-86 0l-336-225 150-100 186 124v201z m-371-305v-144l108 72z m371-449v201l-186 124-150-100z m43 276l152 101-152 102-152-102z m43-276l337 225-151 100-186-124v-201z m371 305v144l-108-72z" horiz-adv-x="1000" />

<glyph glyph-name="jsfiddle" unicode="&#xf1cc;" d="M997 386c90-49 134-145 111-239-23-99-108-170-211-171-164-2-328-1-492-1-60 0-119-1-178 1-94 3-179 70-206 159-28 91 4 185 82 244 5 4 9 13 8 18-7 63 14 113 64 150 51 37 108 42 167 18 4-2 9-5 15-8 32 54 75 95 128 125 181 101 412 16 482-179 11-30 13-63 18-96 1-10 3-16 12-21z m42-306c76 94 43 230-69 282-15 7-19 15-19 31-4 245-260 365-450 259-51-28-91-68-118-119-15-28-24-16-44-5-48 25-96 24-140-6-43-30-63-72-52-123 5-23-2-34-20-46-74-49-104-146-67-226 36-79 101-117 186-118 2 0 320-1 320 1 111 0 222-1 333 0 57 1 104 26 140 70z m-172 157c-11-61-67-108-130-108-33 0-63 13-86 35-54 50-139 146-188 182-39 30-82 25-117-7-98-86 31-238 131-151 9 8 15 19 25 25 16 11 40 2 25-20-34-52-96-75-154-58-56 17-95 71-95 137 3 44 24 85 70 110 44 24 90 25 130-5 100-75 148-160 210-198 48-29 106-14 134 34 57 97-67 206-154 124-7-7-13-17-22-23-21-13-34 8-25 21 40 55 99 79 163 55 61-23 96-87 83-153z" horiz-adv-x="1123" />

<glyph glyph-name="exclamation-circle" unicode="&#xf1ce;" d="M500 725c207 0 375-168 375-375s-168-375-375-375-375 168-375 375 168 375 375 375z m0-62c-173 0-312-140-312-313s139-312 312-312 313 139 313 312-140 313-313 313z m-31-125h62v-250h-62v250z m0-313h62v-62h-62v62z" horiz-adv-x="1000" />

<glyph glyph-name="rebel" unicode="&#xf1d0;" d="M501-134c-272 0-483 227-475 496 5 155 84 297 227 391 1 0 4 2 3-1-12-11-218-254-28-442 97-97 176-5 176-5 75 98-1 246-1 246-20 48-90 78-90 78l57 62c47-20 84-76 84-76 2 58-43 120-43 120l87 99 87-97c-40-57-43-123-43-123 27 45 85 77 85 77l56-62c-54-17-89-78-89-78-31-56-53-175 1-249 63-87 171 6 171 6 201 179-20 439-20 439-12 11 2 6 2 6 97-72 223-165 226-400 4-285-195-487-473-487z" horiz-adv-x="1000" />

<glyph glyph-name="empire" unicode="&#xf1d1;" d="M562 744c-21 4-43 7-66 7v36c153-5 286-86 361-208l-31-18c-12 19-25 37-39 53l-36-31c-50 58-120 99-199 115z m-458-524c8-21 17-41 27-60l-31-18c-33 62-53 133-53 208s19 147 53 208l31-18c-10-19-20-39-27-60l45-15c-13-36-19-75-19-115s7-79 19-115z m312-218l-9-46c21-4 43-7 66-7v-36c-153 5-286 87-362 208l32 19c11-19 24-37 39-54l35 31c51-58 120-99 199-115z m-234 612c-14-16-27-34-39-53l-31 18c75 122 208 203 361 208v-36c-23 0-45-3-66-7l9-46c-79-15-148-57-199-114z m605-528c14 17 28 35 39 54l31-19c-75-121-208-204-361-208v36c22 0 44 3 66 7l-10 46c79 16 149 57 199 115z m182 264c0-268-217-484-485-484s-484 216-484 484 217 484 484 484 485-216 485-484z m-24 0c0 254-206 461-461 461s-460-207-460-461 206-461 460-461 461 207 461 461z m-76 208c33-61 53-133 53-208s-20-146-53-208l-31 18c10 20 19 39 27 61l-45 15c12 35 19 74 19 114s-6 79-19 115l45 15c-8 21-17 42-27 60z m-358-347l26-130c-16-3-34-6-53-6s-36 3-53 6l26 130c-31 7-59 23-79 46l-100-87c-23 26-42 57-53 91l125 43c-4 15-7 30-7 46s3 31 7 46l-126 43c12 34 31 65 54 92l100-88c20 23 48 40 79 47l-26 129c17 4 35 6 53 6s37-2 53-6l-26-129c32-7 60-24 80-47l100 88c23-27 41-58 53-92l-126-43c5-15 8-30 8-46s-3-31-8-46l126-43c-12-34-30-65-53-91l-100 87c-20-23-48-39-80-46z" horiz-adv-x="968.8" />

<glyph glyph-name="git" unicode="&#xf1d3;" d="M37 417c0 133 142 196 247 135 37 0 73 10 107 23v-98c-13-5-26-8-39-11 5-13 8-27 8-41 0-83-51-146-132-161-24-5-38-15-38-41 0-75 197-24 197-162 0-112-75-149-177-149-83 0-179 28-179 129 0 58 35 92 89 110v2c-49 29-39 112-2 128v2c-50 17-81 85-81 134z m171-320c-35 0-77-7-78-51 0-44 51-49 85-49 35 0 74 9 74 51 0 43-48 49-81 49z m-6 253c42 0 58 27 58 67 0 94-119 95-119-1 0-41 18-66 61-66z m642-97v-95c-26-15-60-19-89-19-105 0-117 82-117 167v171h1v2c-14 0-14 3-47-2v93h47c0 44 1 61-3 80h111c-4-27-3-53-3-80h100v-93s-38 2-100 2v-178c0-29 6-64 43-64 19 0 41 6 57 16z m-285 463c0-37-29-71-66-71-39 0-68 34-68 71 0 38 29 72 68 72 38 0 66-36 66-72z m-12-146c-4-28-4-390 0-425h-109c3 35 4 396 0 425h109z" horiz-adv-x="875" />

<glyph glyph-name="hacker-news" unicode="&#xf1d4;" d="M0 788h875v-876h-875v876z m41-386h0c0 1 0 1 1 1 0 0 0 0-1-1z m426-105l158 303h-68c-107-198-94-193-118-245-20 47-14 53-116 245h-73l156-299v-201h61v197z" horiz-adv-x="875" />

<glyph glyph-name="tencent-weibo" unicode="&#xf1d5;" d="M141-118c3-39-54-44-58-6-22 254 61 468 198 612-30 66 18 150 99 150 59 0 108-48 108-107 0-86-97-139-170-88-128-140-198-332-177-561z m234 968c180 0 325-146 325-325 0-200-182-363-398-317-37 9-24 65 13 57 158-41 327 82 327 259 0 148-120 268-267 268-197 0-329-208-238-389 17-35-35-60-52-26-109 211 44 473 290 473z" horiz-adv-x="748" />

<glyph glyph-name="qq" unicode="&#xf1d6;" d="M847 29c-22-3-87 103-87 103 0-61-32-141-100-199 33-10 107-37 89-67-14-24-245-16-311-8-67-8-298-16-312 8-18 30 56 57 89 67-68 58-100 138-100 199 0 0-65-106-87-103-11 1-24 58 18 195 20 64 43 118 79 206-6 229 88 420 313 420 222 0 318-188 313-420 35-88 58-142 78-206 42-137 29-194 18-195z" horiz-adv-x="875" />

<glyph glyph-name="weixin" unicode="&#xf1d7;" d="M752 523c-180 0-323-135-322-301 0-28 4-55 12-80-12-1-24-1-36-1-48 0-86 9-133 19l-133-67 38 114c-95 67-153 153-153 258 0 180 171 323 381 323 186 0 351-114 383-267-12 1-24 2-37 2z m-204 103c-28 0-57-19-57-48 0-28 28-47 57-47 29 0 48 19 48 47 0 29-19 48-48 48z m-266-95c29 0 48 19 48 47 0 29-19 48-48 48-28 0-57-19-57-48 0-28 29-47 57-47z m818-305c0-85-57-161-134-219l29-95-104 57c-38-9-77-19-114-19-181 0-323 124-323 276 0 152 142 276 323 276 171 0 323-124 323-276z m-428 48c28 0 47 19 47 38 0 19-18 38-47 38-19 0-38-19-38-38 0-19 19-38 38-38z m209 0c28 0 48 19 48 38 0 19-20 38-48 38-19 0-38-19-38-38 0-19 19-38 38-38z" horiz-adv-x="1125" />

<glyph glyph-name="slideshare" unicode="&#xf1e7;" d="M367 550c66 0 120-50 120-113 0-62-54-113-120-113s-121 51-121 113c0 63 54 113 121 113z m280 0c67 0 120-50 120-113 0-62-53-113-120-113-67 0-121 51-121 113 0 63 54 113 121 113z m306-176c29 21 49-8 31-35-36-44-104-98-208-140 110-375-268-435-262-243 0 2 0 106 0 183-9 2-17 4-27 6 0-78-1-187-1-189 6-191-372-132-262 243-104 42-172 96-208 141-18 26 2 55 32 34 3-3 8-6 12-8v387c0 53 40 97 90 97h701c50 0 90-44 90-97v-387z m-60-37h0v372c0 64-20 89-80 89h-620c-62 0-79-21-79-89v-376c132-69 245-57 307-55 26 1 43-4 53-15 3-3 19-18 40-33 2 31 19 50 65 49 63-3 179-15 314 58z" horiz-adv-x="1000" />

<glyph glyph-name="twitch" unicode="&#xf1e8;" d="M78 788h778v-536l-229-229h-170l-111-111h-117v111h-209v614z m699-497v418h-627v-548h177v-111l111 111h209z m-130 268v-228h-79v228h79z m-209 0v-228h-79v228h79z" horiz-adv-x="875" />

<glyph glyph-name="yelp" unicode="&#xf1e9;" d="M82 381l194-95c38-19 32-74-8-84l-210-52c-27-7-53 11-55 38-7 58 0 114 17 167 9 25 38 37 62 26z m86-468c-22 16-26 47-8 67l145 161c28 31 79 10 78-31l-8-217c-1-27-25-47-52-42-56 9-109 31-155 62z m284 215c-22 35 12 79 51 66l206-67c26-8 38-37 27-61-24-51-59-96-103-132-21-18-52-13-66 10z m289 258c11-24-2-53-28-61l-208-59c-40-12-73 33-50 68l122 179c15 22 46 26 66 9 41-37 75-83 98-136z m-622 405c92 44 175 55 220 59 26 2 48-19 48-45v-407c0-45-61-61-84-22l-203 353c-13 22-4 51 19 62z" horiz-adv-x="744.1" />

<glyph glyph-name="paypal" unicode="&#xf1ed;" d="M218 272c-7-37-34-212-42-262-1-3-2-4-6-4h-146c-15 0-26 12-24 27l115 726c3 19 20 33 39 33 297 0 322 7 398-22 118-46 129-155 86-274-42-123-141-175-273-177-85-1-136 14-147-47z m480 281c55-41 59-113 46-181-32-163-140-219-279-219-29 0-48 4-57-38-31-191-27-168-28-179-4-17-18-29-34-29h-124c-14 0-23 11-21 25 0 0 9 57 53 332 1 12 9 18 21 18 106 0 322-19 399 203 8 22 14 43 18 66 1 6 2 5 6 2z" horiz-adv-x="750" />

<glyph glyph-name="google-wallet" unicode="&#xf1ee;" d="M306 602c74-118 126-221 165-317-16-66-37-130-61-192-26 102-52 198-110 290 13 71 5 144 6 219z m-92-143c9 0 19-4 25-12 85-117 129-242 161-378h-202c-39 136-97 260-179 366-8 10 0 24 12 24h183z m93 172h212c146-201 256-449 280-719h-222c-16 261-136 508-270 719z m492 134c37-132 60-271 60-415 0-136-18-278-49-397-21 181-83 361-177 529-8 99-26 195-52 285-2 11 5 21 16 21h172c14 0 26-10 30-23z" horiz-adv-x="875" />

<glyph glyph-name="cc-visa" unicode="&#xf1f0;" d="M918 398c0 0 15-72 18-88h-65c7 18 31 85 31 85 0 0 7 18 11 29z m207 296v-688c0-52-42-94-94-94h-937c-52 0-94 42-94 94v688c0 52 42 94 94 94h937c52 0 94-42 94-94z m-827-491l123 303h-83l-76-207-9 42-27 140c-5 19-19 25-36 25h-126l-1-6c30-8 58-19 82-33l70-264h83z m184 0l49 303h-78l-49-303h78z m274 99c0 35-21 61-66 83-28 13-45 23-45 37 1 13 15 26 45 26 26 1 45-5 59-11l7-4 11 66c-16 6-40 13-71 13-77 0-132-41-132-100-1-44 39-68 69-83 30-15 40-24 40-38 0-20-24-29-47-29-31 0-48 5-73 16l-11 5-11-68c19-9 53-16 88-17 82 0 136 41 137 104z m275-99l-63 303h-61c-18 0-33-5-41-25l-116-278h82s14 37 16 45h101c3-10 10-45 10-45h72z" horiz-adv-x="1125" />

<glyph glyph-name="cc-mastercard" unicode="&#xf1f1;" d="M943 49c0-14-9-23-22-23-13 0-22 10-22 23s9 23 22 23c13 0 22-11 22-23z m-607 23c13 0 21-11 21-23 0-14-8-23-21-23-14 0-22 10-22 23s8 23 22 23z m230 0c10 0 17-6 18-17h-37c2 10 8 17 19 17z m210 0c14 0 22-11 22-23 0-14-8-23-22-23-13 0-21 10-21 23s8 23 21 23z m207-51c0-1 1-1 1-3 0 0-1-1-1-2-1 0-1-1-1-1-1-1-1-1-2-1-1-1-1-1-2-1-1 0-1 0-2 1-1 0-1 0-2 1-1 0-1 1-1 1 0 1 0 2 0 2 0 1 0 2 0 3 0 1 1 1 1 2 1 0 1 0 2 1 1 0 1 0 2 0 1 0 1 0 2 0 1-1 1-1 2-1 1-1 0-1 1-2z m-4-3c1 0 1 0 1 0 1 1 1 1 1 2s0 1-1 2c0 0-1 0-2 0h-3v-7h2v3h0l2-3h2z m146 674v-688c0-52-42-94-94-94h-937c-52 0-94 42-94 94v688c0 52 42 94 94 94h937c52 0 94-42 94-94z m-1000-273c0-149 121-270 271-270 53 0 105 16 149 45-142 116-141 334 0 450-44 29-96 45-149 45-150 0-271-121-271-270z m438-212c137 107 137 316 0 424-138-108-138-317 0-424z m-278-149c0 17-12 28-29 28-9 0-19-2-25-12-5 8-13 12-24 12-7 0-15-2-21-10v8h-16v-71h16c0 37-5 59 18 59 20 0 16-20 16-59h15c0 35-4 59 18 59 20 0 16-20 16-59h16v45h0z m87 26h-15v-8c-5 6-13 10-23 10-20 0-36-16-36-37 0-22 16-38 36-38 10 0 18 4 23 11v-9h15v71z m79-50c0 30-44 16-44 30 0 11 23 9 36 2l6 13c-18 12-59 12-59-16 0-28 45-16 45-29 0-13-26-12-40-2l-7-12c22-15 63-12 63 14z m70-18l-5 14c-7-5-24-9-24 8v32h26v14h-26v22h-16v-22h-14v-14h14v-32c0-35 34-29 45-22z m26 26h53c0 32-14 45-34 45-20 0-35-16-35-38 0-40 44-47 66-28l-8 12c-15-13-38-11-42 9z m115 42c-9 4-23 4-30-8v8h-16v-71h16v40c0 23 19 20 25 17z m21-35c0 22 22 29 40 16l8 13c-23 18-64 8-64-30 0-38 43-46 64-29l-8 13c-18-13-40-5-40 17z m130 35h-16v-8c-16 21-58 9-58-27 0-38 43-49 58-27v-9h16v71z m66 0c-5 3-22 6-30-8v8h-15v-71h15v40c0 22 18 20 25 17z m78 30h-15v-38c-16 21-58 10-58-27 0-38 44-48 58-27v-9h15v101z m15 146v-9h2v9h4v2h-9v-2h3z m13-242c0 1 0 3 0 4-1 0-1 1-2 2-1 0-2 1-2 1-1 0-2 1-3 1-1 0-2-1-3-1-1 0-2-1-2-1-1-1-2-2-2-2 0-1 0-3 0-4 0 0 0-1 0-2 0-1 1-2 2-2 0-1 1-1 2-2 1-1 2-1 3-1 1 0 2 0 3 1 0 1 1 1 2 2s1 1 2 2c0 1 0 2 0 2z m6 244h-2l-3-7-4 7h-2v-11h1v8l3-6h3l2 6v-8h2v11z m9 157c0 149-121 270-270 270-54 0-106-16-150-45 141-116 143-335 0-450 44-29 97-45 150-45 149 0 270 121 270 270z" horiz-adv-x="1125" />

<glyph glyph-name="cc-discover" unicode="&#xf1f2;" d="M1016 467c0-16-10-25-30-25h-10v49h10c20 0 30-9 30-24z m15 321c52 0 94-42 94-94v-688c0-52-42-94-94-94h-937c-52 0-94 42-94 94v688c0 52 42 94 94 94h937z m-86-272v-160h31v64h5l43-64h38l-50 67c24 5 36 21 36 46 0 55-59 47-103 47z m-109 0v-160h88v27h-57v43h56v27h-56v36h57v27h-88z m-134 0h-34l68-164h17l69 164h-34l-43-108z m-109 6c-48 0-87-39-87-87 0-48 38-87 87-87 48 0 87 39 87 87 0 48-39 87-87 87z m-97-12c-59 29-123-13-123-74 0-64 65-103 123-75v37c-37-37-91-11-91 38 0 46 52 76 91 37v37z m-190-129c-14 0-26 7-34 21l-20-20c35-51 111-35 111 22 0 26-11 37-46 50-19 7-24 12-24 20 0 17 28 28 48 5l17 21c-38 34-97 18-97-27 0-23 10-34 39-45 50-18 29-47 6-47z m-198-25c61 0 86 44 86 80 0 47-35 80-86 80h-45v-160h45z m132 0v160h-31v-160h31z m823-352v284c-65-41-443-243-813-313h783c16 0 30 13 30 29z m-918 472c11-10 17-25 17-40 0-16-6-30-17-41-10-8-23-12-43-12h-8v106h8c20 0 33-4 43-13z" horiz-adv-x="1125" />

<glyph glyph-name="cc-amex" unicode="&#xf1f3;" d="M635 522c0-15-8-30-23-36 19-7 22-18 22-36v-27h-33c0 29 7 50-29 50h-35v-50h-32v136l76-1c26 0 54-4 54-36z m-57-22c11 0 21 3 21 16 0 12-11 14-21 14h-41v-30h41z m-33-175c30 0 54-10 54-44 0-54-59-45-96-45l0-46h-63l-40 45-41-45h-128l0 135h130l40-44 41 44h103z m-203-106l37 39-35 40h-81v-25h71v-27h-71v-27h79z m129-16v108l-50-54z m74 60c11 0 20 6 20 18 0 12-9 17-20 17h-42v-35h42z m-62 267h-76v-24h74v-28h-74v-27h76v-28h-109v136h109v-29z m642-179h0 0z m-380-62c0-15-8-30-23-36 18-6 21-19 21-36l0-27h-32l0 23c0 23-8 27-29 27h-34l-1-50h-32l0 135h77c25 0 53-4 53-36z m-57-22c11 0 21 3 21 16 0 13-11 15-20 15h-41v-31h40z m-338 156h-32v106l-47-106h-29l-47 106v-106h-66l-12 30h-68l-12-30h-35l58 136h48l55-129v129h53l42-92 39 92h53v-136z m-289 58h44l-22 54z m932-310c68 0 107-4 132 12v-177c0-52-42-94-94-94h-937c-52 0-94 42-94 94v398h52c8 20 4 11 13 30h37c8-19 4-10 13-30h103v22c4-9 2-4 10-22h57c5 11 5 11 10 22v-22h265v49c13 0 16 0 19 0 0 0 0-22 0-49h130v18c15-12 34-18 58-18h53c8 20 4 11 12 30h37c13-29 1-1 13-30h103v43c23-38 15-25 26-43h81v180h-78v-36c-24 40-12 20-22 36h-84v-40c-12 28-9 21-17 40h-64c0 0-4 0-4 1h-54c-25 0-45-7-60-19v19h-78v-11c-21 12-40 10-126 11 0 0-22 0-22 0h-202c-4-12-13-32-24-59-6 12-22 47-27 59h-90v-42c-15 34-9 22-18 42h-77c-7-16-27-63-45-106v215c0 52 42 94 93 94h938c52 0 94-42 94-94v-343c-74 1-86 2-106-10v10c-89 0-105 4-127-10v10h-153v-10c-22 13-42 10-148 10v-11c-12 8-28 11-47 11h-113c-7-7-25-27-31-33-25 27-21 22-30 33h-163v-180h160c7 7 26 27 32 34 25-28 20-23 30-34h95c0 29 1 16 1 45 22-1 47 0 67 12 0-27-1-33-1-57h78c0 36 0 14 0 49 12 0 15 0 18 0 1-2 0 0 0-49 299 0 285-2 306 9v-9z m71 126c-9 0-18-1-18-13 0-24 57 1 77-26v-51c-9-13-27-17-44-17h-62l0 29h62c8 0 17 3 17 12 0 29-84-10-84 54 0 28 22 40 47 40h64v-28h-59z m-111-78c8 0 17 2 17 13 0 29-83-11-83 53 0 28 21 41 46 41h65v-29h-60c-8 0-18-1-18-12 0-30 84 13 84-52 0-32-22-43-51-43h-63l0 29h63z m-82 79h-76v-25h74v-27h-74v-27l76-1-1-28h-107l0 135h108v-27z m-110 211c0 0 3 2 14 2 2 0 4-1 6-1l-14-33c-5 0-7 1-7 1 0 1-2 4-2 16 0 10 2 14 3 15z m39 20h0 0z m-31 30h31v-30c-34 1-64 8-64-38 0-23 5-39 31-39h14l46 106h49l54-127v127h50l57-94v94h33v-135h-47l-60 102v-102h-66l-13 30h-67l-13-30h-37c-45 0-65 24-65 67 0 45 21 69 67 69z m82-24l-23-54h45z m-197 24h33v-136h-33v136z" horiz-adv-x="1125" />

<glyph glyph-name="cc-paypal" unicode="&#xf1f4;" d="M364 346c0-24-19-42-43-42-18 0-31 10-31 29 0 24 18 43 42 43 18 0 32-11 32-30z m-207 94c22 0 39-2 34-29-3-24-20-27-42-27l-16-1 9 52c0 4 3 5 6 5h9z m555 0c17 0 35 0 35-21 0-29-17-35-43-35l-15-1 8 52c0 4 3 5 6 5h9z m413 254v-688c0-52-42-94-94-94h-937c-52 0-94 42-94 94v688c0 52 42 94 94 94h937c52 0 94-42 94-94z m-874-265c0 41-32 55-68 55h-78c-5 0-10-4-10-9l-32-200c-1-3 2-7 6-7h37c5 0 10 5 11 11l8 52c2 14 26 9 36 9 55 0 90 33 90 89z m164-17h-37c-7 0-8-11-8-16-12 17-28 20-47 20-47 0-84-42-84-89 0-38 24-62 62-62 18 0 39 9 52 23-1-3-2-9-2-12 0-5 2-8 6-8h34c5 0 9 5 10 11l20 126c1 3-2 7-6 7z m79-191l125 181c1 1 1 2 1 3 0 3-3 7-7 7h-37c-3 0-7-2-9-5l-52-76-21 73c-2 4-6 8-11 8h-36c-4 0-7-4-7-7 0-2 38-111 42-121-6-8-40-56-40-62 0-3 3-6 6-6h37c4 0 7 2 9 5z m311 208c0 41-31 55-67 55h-78c-5 0-10-4-11-9l-31-199c-1-4 2-8 6-8h40c4 0 7 3 8 6l9 57c1 14 25 9 35 9 55 0 89 33 89 89z m165-17h-37c-8 0-8-11-9-16-10 17-27 20-46 20-48 0-84-42-84-89 0-38 23-62 62-62 18 0 40 9 51 23 0-3-2-9-2-12 0-5 2-8 7-8h33c6 0 10 5 11 11l20 126c1 3-2 7-6 7z m93 65c0 4-3 7-7 7h-36c-3 0-6-2-6-5l-32-203 0-1c0-4 3-7 7-7h32c5 0 10 5 10 11l32 198v0z m-176-101c18 0 32-11 31-30 0-24-19-42-42-42-18 0-32 10-32 29 0 24 19 43 43 43z" horiz-adv-x="1125" />

<glyph glyph-name="cc-stripe" unicode="&#xf1f5;" d="M962 419c17 0 35-13 35-45h-72c0 32 19 45 37 45z m-230-5c26 0 43-29 43-65 0-37-17-65-43-65-16 0-26 6-32 13l-1 103c7 8 17 14 33 14z m299 374c52 0 94-42 94-94v-688c0-52-42-94-94-94h-937c-52 0-94 42-94 94v688c0 52 42 94 94 94h937z m-792-487c0 83-106 68-106 99 0 11 9 15 23 15 21 0 48-6 69-18v66c-23 9-46 12-69 12-56 0-93-29-93-78 0-77 105-65 105-98 0-13-11-17-27-17-23 0-52 10-76 22v-66c26-11 52-16 76-16 58 1 98 29 98 79z m134 111v59h-52v60l-68-15-1-222c0-41 31-71 72-71 23 0 40 4 49 9v56c-9-3-53-16-53 25v99h53z m145-5v64h-1c-9 3-41 9-57-21l-5 21h-60v-243h70v164c16 22 44 18 53 15z m86-179v243h-70v-243h70z m0 279v56l-70-15v-56z m144-284c50 0 95 40 95 128 0 80-45 124-94 124-27 0-45-13-54-21l-4 17h-61v-324l69 15 0 78c10-7 25-17 49-17z m314 100c0 4 1 18 1 25 0 71-35 127-101 127-66 0-106-56-106-126 0-84 48-126 115-126 33 0 58 7 77 18v56c-19-10-41-16-68-16-27 0-51 10-54 42h136z" horiz-adv-x="1125" />

<glyph glyph-name="lastfm" unicode="&#xf202;" d="M441 133c0 0-62-61-191-61-161 0-250 94-250 268 0 181 89 288 257 288 230 0 253-130 316-319 27-83 75-144 191-144 78 0 119 17 119 60 0 62-68 68-156 89-95 23-133 72-133 150 0 125 101 164 204 164 117 0 188-43 197-146l-114-13c-5 49-34 70-90 70-50 0-81-24-81-62 0-35 15-55 65-67 103-22 225-37 225-180 0-114-96-158-238-158-198 0-267 90-304 201-51 159-67 263-197 263-70 0-141-50-141-191 0-110 56-179 136-179 89 0 148 67 148 67z" horiz-adv-x="1000" />

<glyph glyph-name="lastfm-square" unicode="&#xf203;" d="M781 788c52 0 94-42 94-94v-688c0-52-42-94-94-94h-687c-52 0-94 42-94 94v688c0 52 42 94 94 94h687z m-180-612c89 0 149 28 149 99 0 89-77 99-140 113-32 7-41 20-41 41 0 25 19 39 51 39 34 0 53-13 55-44l72 9c-6 64-50 91-123 91-64 0-127-25-127-103 0-48 23-79 83-93 55-13 97-17 97-56 0-27-26-38-74-38-72 0-103 38-120 91-39 118-53 199-197 199-105 0-161-67-161-180 0-109 56-168 156-168 81 0 120 38 120 38l-23 63s-37-42-93-42c-49 0-85 43-85 112 0 88 45 119 89 119 81 0 91-65 123-164 22-70 65-126 189-126z" horiz-adv-x="875" />

<glyph glyph-name="ioxhost" unicode="&#xf208;" d="M1203 538c26 0 47-21 47-47 0-26-21-47-47-47h-103c6-30 9-62 9-94 0-268-216-484-484-484-201 0-373 122-447 297h-131c-26 0-47 20-47 46 0 26 21 47 47 47h103c-6 31-9 62-9 94 0 268 216 484 484 484 201 0 373-122 447-296h131z m-187-188c0 32-4 64-12 94h-582c-26 0-47 21-47 47 0 25 21 47 47 47h546c-66 121-195 203-343 203-216 0-391-175-391-391 0-32 4-64 12-94h582c26 0 47-21 47-47 0-25-21-46-47-46h-546c66-122 195-204 343-204 216 0 391 175 391 391z m-594 47h406c26 0 47-21 47-47 0-26-21-47-47-47h-406c-26 0-47 21-47 47 0 26 21 47 47 47z" horiz-adv-x="1250" />

<glyph glyph-name="angellist" unicode="&#xf209;" d="M678 429c94-23 107-98 107-183 0-223-143-396-374-396-188 0-321 149-321 290 0 73 28 121 100 140-6 17-16 41-16 58 0 46 49 103 95 103 13 0 26-4 39-8-25 68-91 247-91 316 0 56 28 101 89 101 78 0 167-281 186-337 24 61 102 319 189 319 55 0 86-44 86-96 0-59-66-243-89-307z m-69 210l-65-183 67-12c16 46 92 252 92 289 0 14-5 32-22 32-31 0-64-102-72-126z m-331 117c0-57 68-235 89-291 15 9 39 5 69 3l-68 196c-62 181-90 115-90 92z m-5-383c-15 0-39-26-39-41 0-40 109-191 150-191 11 0 21 13 21 23 0 25-74 209-132 209z m360-363c108 120 96 309 61 341-47 41-207 57-270 57-34 0-34-13-34-26 0-85 181-77 235-77 22 0 31-20 33-42-14-14-34-23-53-30-18-6-37-14-53-25-43-32-85-85-85-140 0-35 20-65 20-99 0 0-4-12-4-14-63 4-79 68-81 120-7-1-16-1-23-1 10-34-23-82-74-82-74 0-172 112-114 170 56-70 68-100 100-100 8 0 23 6 23 16 0 25-84 143-106 143-33 0-74-49-41-134 45-109 136-172 252-172 85 0 158 32 214 95z m-192 246c6-16 13-33 18-49 13 14 25 26 40 37-20 4-39 6-58 12z" horiz-adv-x="875" />

<glyph glyph-name="buysellads" unicode="&#xf20d;" d="M438 556l83-314h-167z m437 138v-688c0-52-42-94-94-94h-687c-52 0-94 42-94 94v688c0 52 42 94 94 94h687c52 0 94-42 94-94z m-127-636l-185 584h-251l-184-584h177l218 179 47-179h178z" horiz-adv-x="875" />

<glyph glyph-name="connectdevelop" unicode="&#xf20e;" d="M1075 379c13-2 23-14 23-28 0-15-10-27-24-30l-107-186c1-3 2-6 2-9 0-15-10-27-24-29l-101-177c1-2 2-5 2-8 0-16-14-30-30-30-9 0-16 4-22 10h-209c-5-7-14-11-22-11s-18 4-23 11h-209c-5-7-13-11-22-11-16 0-30 13-30 30 0 4 1 7 2 10l-101 176c-13 2-23 14-23 29 0 3 0 6 1 9l-108 186c-13 3-23 15-23 30 0 14 10 26 24 29l105 180c0 1-1 2-1 3 0 12 7 22 18 27l109 190c-1 2-2 6-2 9 0 17 14 30 30 30 9 0 17-4 23-11h207c5 7 13 11 23 11s17-4 22-11h208c6 7 14 11 23 11 16 0 30-13 30-30 0-3-1-6-2-9l108-188c16 0 29-13 29-29 0-5-1-10-4-14z m-775-409v148h-85z m0 163v99l-88-92c1-2 2-4 3-7h85z m0 122l0 182-98 101c-5-3-10-4-15-5l-102-176c1-2 1-4 1-6 0-3 0-6-1-8l109-189c2 0 5-2 8-3z m0 200v141l-86-31c0 0 1-2 1-2 0-6-2-11-5-15z m0 158v116l-85-147z m638-77l-1 1-191-198 124-132 69 327z m-368-380l-22-23h44z m-1 22l155 161-162 171-155-165z m11-11l33-34h242l12 55-132 140z m222 596l-229-242 162-171 191 198c-3 4-5 9-5 15v1l-113 197c-2 0-4 1-6 2z m-18 5h-9l-324-118 111-117z m-241 0h-203l99-105 290 105h-147c-5-6-12-9-19-9s-15 3-20 9z m-227-11v-139l107 39-100 105c-1 0-4-1-5-1z m0-155v-163l80-82 155 164-117 124z m0-181v-149l71 75z m0-172v-116h210l33 35-161 168z m13-317h3l179 186h-195v-176l2-3c4-1 8-3 11-7z m254 0h203l-178 186h-75l-179-186h188c5 5 13 9 21 9s15-4 20-9z m234 23l34 163h-223l174-180c2 1 4 2 7 3z m25 44l68 119h-42z m68 134c1 3 2 5 3 6l-33 36-9-42h39z m130 210c-1 3-1 5-1 8 0 3 1 5 1 8l-89 155-68-320 41-43c2 1 5 2 7 3z" horiz-adv-x="1125" />

<glyph glyph-name="dashcube" unicode="&#xf210;" d="M638 647l200 203v-834c0-99-79-166-179-166h-443c-100 0-178 67-178 166v448c0 98 78 183 178 183h422z m-337-610v-1h437l-100 103v241c0 34-28 63-63 63h-274c-35 0-64-29-64-63v-279c0-35 29-64 64-64z" horiz-adv-x="875" />

<glyph glyph-name="forumbee" unicode="&#xf211;" d="M11 245c-7 33-11 67-11 101 0 240 195 436 436 436 32 0 65-4 96-11-241-92-431-284-521-526z m768 370c-295-86-526-321-610-617-34 26-64 60-88 96 84 293 312 523 604 609 36-24 67-54 94-88z m31-494c25-69 47-143 65-214-70 18-141 40-209 65-50-31-107-52-165-61 83 156 211 288 366 372-8-57-28-113-57-162z m58 284c-222-91-399-272-490-495-38 5-75 15-110 30 88 270 299 487 569 576 15-35 26-73 31-111z" horiz-adv-x="875" />

<glyph glyph-name="leanpub" unicode="&#xf212;" d="M755 632l29-486-21 1c-71 1-140-18-200-55-61 37-130 55-201 55-89 0-160-21-241-55l61 505c56 23 120 35 180 35 80 0 144-25 201-83 54 55 115 82 192 83z m357-657c-50 0-93 10-138 31-67 30-137 48-211 48-76 0-146-25-200-79-55 54-125 79-201 79-74 0-144-18-211-48-43-20-87-31-135-31h-2l83 682c76 43 170 68 258 68 72 0 147-15 208-57 60 42 135 57 207 57 88 0 182-25 258-68z m-85 87l-67 548c-60 27-131 42-197 42-75 0-145-24-200-76-56 52-126 76-201 76-66 0-137-15-197-42l-67-548c92 38 162 66 264 66 73 0 138-19 201-58 62 39 127 58 200 58 102 0 172-28 264-66z" horiz-adv-x="1125" />

<glyph glyph-name="sellsy" unicode="&#xf213;" d="M1054 387c108-27 184-124 184-234 0-133-108-241-241-241h-744c-132 0-241 108-241 241 0 93 55 178 138 217-4 15-6 30-6 44 0 90 74 164 164 164 40 0 78-14 108-40 36 146 168 250 319 250 180 0 328-148 328-328 0-25-3-50-9-73z m-664-321v216c0 17-13 30-29 30h-61c-16 0-30-13-30-30v-216c0-16 14-30 30-30h61c16 0 29 14 29 30z m175 0v257c0 16-14 29-30 29h-60c-16 0-30-13-30-29v-257c0-16 14-30 30-30h60c16 0 30 14 30 30z m175 0v318c0 16-14 29-30 29h-60c-17 0-30-13-30-29v-318c0-16 13-30 30-30h60c16 0 30 14 30 30z m170 0v438c0 17-14 31-30 31h-56c-16 0-30-14-30-31v-438c0-16 14-30 30-30h56c16 0 30 14 30 30z" horiz-adv-x="1250" />

<glyph glyph-name="shirtsinbulk" unicode="&#xf214;" d="M195 49l9 19 60-26-9-19z m77-34l9 19 60-26-9-20z m336 27l60 26 9-19-60-26z m-258-61l8 19 60-27-9-19z m-232 102l9 19 59-27-8-18z m413-75l60 26 8-19-59-27z m-77-35l60 27 9-19-60-27z m231 102l60 27 9-19-60-26z m-353 684v-20h-65v20h65z m-92 0l0-20h-66v20h66z m-92 0l0-20h-65v20h65z m276 0v-20h-65v20h65z m184 0v-20h-65v20h65z m93 0v-20h-66v20h66z m-185 0v-20h-65v20h65z m276 0v-20h-65v20h65z m-689-595v-65h-21v65h21z m137 422l0-21h-66v21h66z m-137-21v-45h-21v66h66v-21h-45z m330-446c-98 0-178 79-178 178 0 98 80 178 178 178 99 0 178-80 178-178 0-99-79-178-178-178z m-94 217c0-87 151-23 151-74 0-26-46-28-63-28-24 0-59 5-71 29h-1l-18-36c29-18 57-24 92-24 38 0 100 11 100 61 0 94-153 32-153 74 0 26 40 29 58 29 21 0 57-6 69-26h2l17 33c-29 13-53 24-86 24-39 0-97-13-97-62z m-236 166v-66h-21v66h21z m669-403v65h21v-65h-21z m-669 150v-66h-21v66h21z m-103 594h875v-793l-442-193-433 193v793z m818-756h0v527h-761v-527l377-168z m0 584h0v115h-761v-115h761z m-715-254v-65h-21v65h21z m0-84v-66h-21v66h21z m229 253v-21h-65v21h65z m440-319v66h21v-66h-21z m0 85v65h21v-65h-21z m-348 234v-21h-65v21h65z m348-150v65h21v-65h-21z m0-253v65h21v-65h-21z m-256 403v-21h-65v21h65z m92 0v-21h-65v21h65z m164-66l0 45h-44v21h65v-66h-21z m-71 66v-21h-66v21h66z" horiz-adv-x="875" />

<glyph glyph-name="simplybuilt" unicode="&#xf215;" d="M940 725c29 0 52-23 52-51v-648c0-28-23-51-52-51h-880c-29 0-52 23-52 51v648c0 28 23 51 52 51h207c29 0 52-23 52-51v-78h362v78c0 28 24 51 52 51h207z m-647-570c72 0 130 58 130 130 0 72-58 130-130 130-72 0-130-58-130-130 0-72 58-130 130-130z m414 0c72 0 130 58 130 130 0 72-58 130-130 130-72 0-130-58-130-130 0-72 58-130 130-130z" horiz-adv-x="1000" />

<glyph glyph-name="skyatlas" unicode="&#xf216;" d="M1250 207c0-129-102-224-229-224-324 0-384 488-703 488-287 0-287-414 11-414 83 0 177 34 245 83 11 8 33 32 44 32s22-10 22-22c0-15-26-37-37-47-80-69-196-119-302-119-163-1-301 115-301 283 0 167 132 291 298 291 362 0 435-480 707-480 195 0 185 272 7 272-34 0-68-22-92-22-16 0-31 14-31 30 0 23 11 47 11 71 0 130-100 224-229 224-103 0-156-72-173-72-12 0-22 10-22 22 0 11 8 20 15 28 50 56 127 85 201 85 155 0 272-114 272-269 0-13-1-26-3-40 24 6 47 9 70 9 119 0 219-88 219-209z" horiz-adv-x="1250" />

<glyph glyph-name="heartbeat" unicode="&#xf21e;" d="M625 374l44-86h213l-357-365c-14-14-36-14-50 0l-357 365h184l59 140 111-247c11-24 45-25 56-1z m300 332c95-98 99-252 15-356h-233l-54 108c-11 23-44 23-55 0l-96-191-114 252c-11 25-47 25-57-1l-70-168h-200c-85 104-81 258 14 356l5 4c100 103 265 103 366 0l54-55 55 56c100 102 265 102 366 0z" horiz-adv-x="1000" />

<glyph glyph-name="pinterest-p" unicode="&#xf231;" d="M398 837c184 0 352-126 352-320 0-182-93-385-301-385-49 0-111 25-135 71-44-177-41-203-139-338-10-4-7-4-14 3-3 37-9 73-9 110 0 120 55 293 82 409-14 30-18 66-18 99 0 156 183 179 183 50 0-76-51-147-51-221 0-51 41-86 90-86 135 0 176 195 176 298 0 139-98 215-231 215-155 0-275-111-275-269 0-75 47-114 47-132 0-15-11-69-31-69-47 0-124 78-124 216 0 216 198 349 398 349z" horiz-adv-x="750" />

<glyph glyph-name="whatsapp" unicode="&#xf232;" d="M744 660c82-82 131-190 131-306 0-239-199-434-438-434h0c-72 0-144 18-207 53l-230-61 62 225c-38 66-58 141-58 217 0 239 194 434 433 434 116 0 225-46 307-128z m-307-667c199 0 365 162 365 361 0 96-42 186-110 255-68 68-158 105-254 105-199 0-361-161-361-360 0-68 19-134 55-192l9-14-37-133 137 36 13-8c55-32 119-50 183-50z m198 270c11-5 18-8 21-13 2-4 2-26-7-51-9-26-52-49-73-52-34-5-61-2-130 27-109 47-180 157-185 164-5 7-44 59-44 112s28 80 38 90c10 11 21 14 29 14s14 0 20 0c7-1 16 2 25-19 9-22 30-75 33-80 3-6 5-12 1-19-21-42-43-40-32-60 42-72 84-97 148-128 11-6 17-5 23 2 7 8 27 32 35 43 7 11 14 9 24 5 10-3 63-29 74-35z" horiz-adv-x="875" />

<glyph glyph-name="heart" unicode="&#xf233;" d="M703 694c129 0 235-105 235-235 0-81-74-154-78-157l-360-361-361 361c-3 3-76 76-76 157 0 130 105 235 234 235 90 0 166-57 203-89 37 32 113 89 203 89z" horiz-adv-x="1000" />

<glyph glyph-name="heart-o" unicode="&#xf234;" d="M297 694c107 0 176-65 203-92 27 27 96 92 203 92 129 0 235-107 235-235 0-89-78-157-78-157l-337-339-23-22-22 22-338 339s-20 18-38 46-39 67-39 111c0 128 105 235 234 235z m0-63c-95 0-172-78-172-172 0-24 13-53 28-76s31-37 31-37l316-316 316 316s59 65 59 113c0 94-77 172-172 172-93 0-180-91-180-91l-23-26-23 26s-87 91-180 91z" horiz-adv-x="1000" />

<glyph glyph-name="viacoin" unicode="&#xf237;" d="M750 788l-94-219h94v-94h-134l-27-62h161v-94h-201l-174-407-174 407h-201v94h161l-27 62h-134v94h94l-94 219h125l158-375h184l158 375h125z m-375-594l53 125h-106z" horiz-adv-x="750" />

<glyph glyph-name="medium" unicode="&#xf23a;" d="M0 788h875v-876h-875v876z m727-208v10h-162l-116-289-132 289h-170v-10l54-66c6-5 9-12 8-19v-260c1-9-2-19-8-26l-62-74v-10h176v10l-62 74c-7 7-10 17-9 26v225l154-335h18l132 335v-268c0-7 0-8-5-13l-47-46v-9h230v10l-46 45c-4 2-6 8-5 13v330c-1 5 1 10 5 13z" horiz-adv-x="875" />

<glyph glyph-name="y-combinator" unicode="&#xf23b;" d="M875 788v-876h-875v876h875z m-414-499l151 284h-64l-89-178c-9-18-18-36-25-52l-24 52-88 178h-68l149-281v-185h58v182z" horiz-adv-x="875" />

<glyph glyph-name="optin-monster" unicode="&#xf23c;" d="M1118 27c2-7 4-14 4-21 1-62-87-125-144-127-34-2-67 16-83 46-222-8-444-10-665 0-16-30-50-47-84-46-56 2-144 65-143 127 0 8 1 14 3 21-11 19-9 30 11 23 6 10 14 18 22 27-5 21 2 27 21 18 9 6 20 12 31 18 0 31 24 22 34 11 25 3 40-1 53-11v38c-26 0-80 22-90 71-10 41 5 74 49 93 2 11 16 27 29 31 15 4 24-9 28-20 14 0 34-3 41-16 10 1 21 3 32 4-5 3-10 7-16 9-10 17-27 21-48 22 0 2 0 3 1 6-39 1-86 11-107 34-42 46-32 164 23 203 17 11 43 1 45-19 4-41 0-53 51-51 16 15 33 29 52 39-29 3-57-3-86-7 25 24 47 49 111 82 46 24 97 41 149 46-37 15-78 23-117 32 149 32 341 43 477-73 35-31 63-71 83-118 78-9 71 11 76 49 2 21 28 30 44 19 29-21 43-60 48-94 4-35 1-81-24-108-21-23-67-34-105-35v-5c-22-1-40-5-50-23-6-2-11-5-17-9 11-1 23-3 33-4 4 11 25 17 41 17 4 10 14 23 28 20 14-3 27-20 29-31 21-9 43-24 49-50 4-16 3-30 1-43-12-49-65-71-90-71 0-13 0-26-1-38 16 11 32 14 53 11 11 11 34 18 34-11 11-6 22-12 31-18 20 9 27 1 21-18 8-9 16-18 22-27 20 7 21-4 10-23z m-144 496c34-13 51-43 59-70 3 21-5 78-27 100-14 14-27 10-27-1 0-12-3-23-5-29z m-9-13c-6-6-18-10-27-11 25-31 33-82 25-123 21 4 40 12 51 24 3 4 7 9 9 15-2 41-20 83-58 95z m-47-13c-7 0-16 0-23 0 15-40 24-83 28-126 7 0 15 1 23 2 11 47-1 100-28 124z m-825-43c8 26 25 56 59 69-2 6-5 17-5 29 0 11-14 16-27 1-22-22-29-79-27-99z m19-54c11-12 30-20 51-24-8 42-1 92 25 123-10 1-22 5-28 11-38-12-55-54-58-95 3-6 6-11 10-15z m93-29c5 44 18 86 39 124-10-2-20-6-29-9l-24-10v0c-14-27-19-67-10-103 9-1 16-2 24-2z m360 318c-82 0-149-67-149-148 0-83 67-149 149-149 82 0 149 66 149 149 0 82-67 148-149 148z m225-341c-25 2-51 2-77 3 20-99 7-127 33-114 31 16 44 77 44 111z m-105 4c-37 0-74 0-111 0v0c-1-10 0-74 8-80 22-11 77-9 100-2 10 3 5 72 3 82z m-141-105c9 4 4 88 2 104v1c-38-1-75-1-113-2-3-18-9-95 4-100 25-11 81-10 107-3z m-208 99c-11-38 0-88 43-107 11-5 17-5 19 9 4 17 5 71 9 101-23 0-48-1-71-3z m-70-61c5-7 4-18-15-24 85-92 181-168 304-208 132 37 226 117 319 209-22 8-15 20-14 22-18 2-35 4-52 6-18-65-70-104-91-62-6 10-7 23-9 33-8-17-26-16-48-18-26-2-62-2-86 6-6-25-22-25-53-28-27-2-95-8-107 21-2-56-68-19-88 14-6 11-11 22-14 34-15-1-30-3-46-5z m-42-337c1 5 2 10 2 16-11 46-36 97-66 106-43 13-134-46-129-107 25-38 78-70 116-71 34-2 70 21 77 56z m-17 129c18-31 31-65 33-101 65 38 135 70 207 92-76 40-133 93-190 150-4-3-10-5-16-7-3-9 17-10 11-24-4-8-17-15-29-18-5-5-10-10-16-13h0c-1-26-1-52 0-79z m660-126c-72 42-145 81-226 104-27-13-55-23-83-31-4-1-4-1-8 0-23 8-45 16-68 26-79-22-151-57-220-99h0v-1c0 0 0 0 0 1 202-8 403-7 605 0z m20 24c2 29 14 70 32 101l0 0c1 26 1 53 1 80-5 4-11 8-15 14-13 2-26 10-30 17-4 8 3 15 12 20-1 1-1 3-1 5-6 1-11 3-15 6-62-57-128-111-202-150 76-23 148-55 218-93z m207-12c6 61-85 120-129 107-29-9-55-61-66-106 0-46 42-74 79-72 38 1 91 33 116 71z m-366 740c-69 77-159 94-246 46 49 110 239 95 246-46z m-582-648c29 4 48-38 36-60-9-19-46-47-70-54-32-9-63 7-63 29 0 35 66 82 97 85z m422 344c-61 0-113 50-98 117 25-41 90-24 90 22 0 19-13 36-32 42 62 27 141-16 141-86 0-53-45-95-101-95z m-435-475c-1 16 40 46 57 49 17 3 25-22 19-36-5-11-21-26-34-32-18-6-41 6-42 19z m846 131c31-3 97-50 97-85 0-22-31-38-63-29-24 7-61 35-71 54-11 22 8 64 37 60z m-44-82c18-3 59-33 57-49 0-13-24-25-42-19-13 6-29 21-33 32-6 14 2 39 18 36z" horiz-adv-x="1125" />

<glyph glyph-name="opencart" unicode="&#xf23d;" d="M827-11c0-49-40-89-89-89s-90 40-90 89 41 90 90 90c49 0 89-40 89-90z m-496 90c49 0 89-40 89-90s-40-89-89-89c-50 0-89 40-89 89s39 90 89 90z m570 527c590 0 331-131-34-457 116 201 513 379-138 369-625-9-662 181-729 282 160-169 310-194 901-194z" horiz-adv-x="1248" />

<glyph glyph-name="expeditedssl" unicode="&#xf23e;" d="M484 765c230 0 416-186 416-415s-186-415-416-415-415 186-415 415 186 415 415 415z m-190-259h0v-52c0-10 7-18 17-18h35c10 0 17 8 17 18v52c0 160 242 160 242 0v-52c0-10 8-18 18-18h34c10 0 18 8 18 18v52c0 105-86 190-191 190s-190-85-190-190z m467-398v277c0 19-15 34-34 34h-485c-19 0-34-15-34-34v-277c0-19 15-35 34-35h485c19 0 34 16 34 35z m-484 268v-260c0-4-4-8-9-8h-17c-5 0-9 4-9 8v260c0 5 4 9 9 9h17c5 0 9-4 9-9z m277-95c0-25-14-48-35-59v-62c0-10-8-18-17-18h-35c-10 0-17 8-17 18v62c-21 11-35 34-35 59 0 38 31 69 69 69 39 0 70-31 70-69z m-70 553c268 0 485-216 485-484s-217-484-485-484-484 216-484 484 217 484 484 484z m0-934c248 0 450 202 450 450s-202 450-450 450-449-202-449-450 201-450 449-450z" horiz-adv-x="968.8" />

<glyph glyph-name="cc-jcb" unicode="&#xf24b;" d="M843 373v63c80 0 75 0 75 0 14-3 26-15 26-32 0-17-12-28-26-31-2 0-6 0-75 0z m83-40c15-2 27-16 27-33 0-17-12-30-27-33-5-1-6-1-83-1v68c77 0 78 1 83-1z m199 361v-688c0-52-42-94-94-94h-937c-52 0-94 42-94 94v688c0 52 42 94 94 94h937c52 0 94-42 94-94z m-769-220h-112c0-131 21-214-70-214-38 0-76 11-111 29v-55c58-16 132-16 132-16 192 0 161 93 161 256z m348-8c-124 31-322 29-322-116 0-151 211-144 322-116v56c-93-49-210-43-210 60s117 109 210 61v55z m359-176c0 37-33 60-75 63v2c38 5 60 30 60 59 0 37-31 58-73 60 0 0 13 1-235 1v-249h240c47-1 83 25 83 64z" horiz-adv-x="1125" />

<glyph glyph-name="cc-diners-club" unicode="&#xf24c;" d="M468 694c190 0 344-154 344-343 0-190-154-344-344-344-189 0-343 154-343 344 0 189 154 343 343 343z m-78-546v406c-81-32-139-111-139-203 0-93 58-172 139-203z m156-1c82 32 140 111 140 204 0 92-58 171-140 203v-407z m485 641c52 0 94-42 94-94v-688c0-52-42-94-94-94h-937c-52 0-94 42-94 94v688c0 52 42 94 94 94h937z m-387-813c205 0 392 167 392 372 0 223-187 378-392 378h-176c-208 0-379-155-379-378 0-205 171-372 379-372h176z" horiz-adv-x="1125" />

<glyph glyph-name="clone" unicode="&#xf24d;" d="M906 850c52 0 94-42 94-94v-562c0-52-42-94-94-94h-562c-52 0-94 42-94 94v562c0 52 42 94 94 94h562z m-562-812h406v-94c0-52-42-94-94-94h-562c-52 0-94 42-94 94v562c0 52 42 94 94 94h94v-406c0-86 70-156 156-156z" horiz-adv-x="1000" />

<glyph glyph-name="jpy" unicode="&#xf253;" d="M225 694h74l201-323 201 323h74l-214-344h127v-62h-157v-63h157v-62h-157v-157h-62v157h-156v62h156v63h-156v62h127z" horiz-adv-x="1000" />

<glyph glyph-name="creative-commons" unicode="&#xf25e;" d="M480 430l-65-33c-18 38-49 39-53 39-44 0-65-29-65-86 0-46 18-86 65-86 28 0 48 14 59 42l60-30c-12-23-50-77-127-77-44 0-145 21-145 151 0 115 84 150 142 150 60 0 103-23 129-70z m280 0l-64-33c-19 38-51 39-55 39-43 0-65-29-65-86 0-46 18-86 65-86 28 0 48 14 60 42l60-30c-4-8-42-77-127-77-44 0-144 20-144 151 0 115 84 150 142 150 60 0 102-23 128-70z m-276 404c277 0 485-215 485-484 0-287-232-485-485-485-262 0-484 214-484 485 0 260 205 484 484 484z m1-880c202 0 396 158 396 396 0 222-176 397-396 397-231 0-398-191-398-397 0-214 178-396 398-396z" horiz-adv-x="968.8" />

<glyph glyph-name="gg" unicode="&#xf260;" d="M350 400l200-200-200-200-350 350 350 350 88-87-50-50-38 37-250-250 250-250 101 101-151 149z m300 300l350-350-350-350-87 88 50 50 37-38 250 250-250 250-101-101 151-149-50-50-200 200z" horiz-adv-x="1000" />

<glyph glyph-name="gg-circle" unicode="&#xf261;" d="M502 834c268 0 484-216 484-484s-216-484-484-484-484 216-484 484 216 484 484 484z m-97-732l147 147-151 151-48-48 104-103-52-52-151 151 151 151 22-22 47 47-69 69-245-245z m194 5l245 245-245 246-147-147 151-151 48 48-104 103 52 52 150-151-150-151-22 22-47-48z" horiz-adv-x="1003.9" />

<glyph glyph-name="tripadvisor" unicode="&#xf262;" d="M325 302c0-26-21-47-47-47-26 0-47 21-47 47 0 26 21 47 47 47 26 0 47-21 47-47z m518 47c25 0 46-21 46-47 0-26-21-47-46-47-26 0-47 21-47 47 0 26 21 47 47 47z m174-272c-122-97-299-75-395 47l-61-90-60 90c-94-118-264-141-386-51-125 92-152 268-60 393-10 34-34 84-55 112l176 0c94 58 260 106 370 106 4 0 11-1 15-1 4 0 9 0 12 0 109 0 272-46 364-104l188 0c-21-28-46-79-56-113 92-122 68-295-52-389z m-510 223c0 124-101 224-225 224-124 0-225-100-225-224 0-124 101-225 225-225 124 0 224 101 225 225v0z m55 20c11 144 128 256 272 260-69 30-187 54-263 54-2 0-7 0-10 0-2 0-5 0-6 0-77 0-197-24-267-53 145-3 264-116 274-261z m492 56c-43 117-172 176-289 133-116-42-176-172-133-288v0c43-117 173-176 289-133 116 43 176 172 133 288z m-637-74v0c0-77-62-139-139-139-77 0-139 63-139 139s63 139 139 139c77 0 139-62 139-139z m-48 0v0c0 51-41 91-91 91s-91-41-91-91c0-50 41-91 91-91 51 0 91 41 91 91z m613 0c0-77-63-139-140-139-76 0-139 62-139 139 0 77 63 139 140 139 76 0 138-62 139-139z m-48 0c0 51-41 91-92 91s-91-41-91-91 41-91 92-91c50 0 91 41 91 91v0z" horiz-adv-x="1125" />

<glyph glyph-name="odnoklassniki" unicode="&#xf263;" d="M537 198c-53-34-127-48-175-53l40-40 149-149c55-56-34-143-89-89-37 37-92 92-149 149l-149-149c-55-54-144 34-89 89 38 38 92 93 149 149l41 40c-48 5-123 18-177 53-64 41-92 65-67 115 14 29 54 53 106 11 0 0 71-56 186-56 114 0 185 56 185 56 53 41 92 18 107-11 24-50-4-74-68-115z m-478 399c0 140 114 253 254 253s253-113 253-253c0-140-114-253-253-253s-254 113-254 253z m129 0c0-69 56-125 125-125s124 56 124 125c0 69-56 125-124 125s-125-56-125-125z" horiz-adv-x="625" />

<glyph glyph-name="odnoklassniki-square" unicode="&#xf264;" d="M360 504c0 43 35 78 78 78s77-35 77-78c0-43-35-78-77-78s-78 35-78 78z m515 190v-688c0-52-42-94-94-94h-687c-52 0-94 42-94 94v688c0 52 42 94 94 94h687c52 0 94-42 94-94z m-596-190c0-87 71-158 159-158s158 71 158 158c0 88-71 159-158 159s-159-71-159-159z m341-177c-9 18-34 33-67 7 0 0-44-35-115-35s-116 35-116 35c-33 26-58 11-67-7-15-31 2-46 42-72 34-22 80-30 110-33l-25-25c-35-35-69-70-93-93-34-35 21-90 56-56l93 93c35-35 69-69 93-93 34-34 90 21 56 56l-93 93-26 25c30 3 77 11 110 33 40 26 57 41 42 72z" horiz-adv-x="875" />

<glyph glyph-name="get-pocket" unicode="&#xf265;" d="M796 725c44 0 79-35 79-79v-264c0-244-195-438-437-438-243 0-438 194-438 438v264c0 43 36 79 79 79h717z m-316-524c218 210 224 205 224 240 0 33-27 60-60 60-33 0-29-4-206-174-174 167-172 174-206 174-33 0-59-27-59-60 0-35 2-28 224-240 21-22 59-23 83 0z" horiz-adv-x="875" />

<glyph glyph-name="wikipedia-w" unicode="&#xf266;" d="M1250 750l-1-24c-54-1-87-31-109-78-48-113-201-469-303-701h-26l-160 377c-64-124-134-254-194-377-1-1-29 0-29 1-92 214-188 427-280 642-22 52-96 136-148 136 0 6 0 19 0 27h316v-27c-37-2-103-26-85-67 43-97 203-469 246-563 29 58 113 213 147 279-27 55-115 261-142 312-19 35-71 38-109 39v27l278-1v-25c-38-2-74-16-57-51 37-78 59-133 94-205 10 21 67 136 93 197 18 40-7 56-75 57 1 7 0 21 1 27 86 1 217 1 240 1v-26c-44-2-89-25-113-62l-116-240c13-32 124-279 135-306l239 552c-17 45-71 55-92 55v27l250-2z" horiz-adv-x="1250" />

<glyph glyph-name="safari" unicode="&#xf267;" d="M463 348c0 18 13 35 32 35 17 0 34-12 34-31 0-18-13-35-32-35-17 0-34 13-34 31z m521 2c0-268-216-484-484-484s-484 216-484 484 216 484 484 484 484-216 484-484z m-52 0c0 239-193 432-432 432s-432-193-432-432 193-432 432-432 432 193 432 432z m-141-189c0-7 25-20 32-23-54-82-137-140-231-163l-8 36c-1 5-4 5-8 5-4 0-6-5-6-8l9-37c-26-5-53-8-79-8-71 0-141 20-201 57 3 6 24 35 24 40 0 3-4 7-8 7-7 0-23-33-28-39-82 54-141 138-164 233l38 9c4 1 5 4 5 8 0 3-5 6-8 5l-37-8c-5 25-7 50-7 75 0 73 20 144 59 205 5-3 31-21 35-21 4 0 7 3 7 6 0 8-28 22-35 27 55 80 139 138 234 160l8-36c1-5 5-6 9-6s5 6 5 9l-8 36c24 4 48 7 72 7 73 0 143-21 205-59-4-6-21-31-21-36 0-3 3-7 6-7 8 0 23 29 26 35 81-54 138-137 160-231l-30-6c-5-2-6-5-6-9 0-4 6-6 8-5l31 7c5-25 8-51 8-76 0-71-20-141-56-201-6 3-28 19-33 19-4 0-7-3-7-7z m-65 473c-25-23-262-241-269-253l-188-313c24 23 262 242 268 253z" horiz-adv-x="1000" />

<glyph glyph-name="chrome" unicode="&#xf268;" d="M257 425l-149 230c93 115 232 179 375 179 82 1 167-20 243-64 85-50 150-120 191-202l-401 22c-114 6-222-58-259-165z m64-75c0 90 73 163 163 163s164-73 164-163-73-163-164-163-163 73-163 163z m615 174c85-218 0-472-210-593-84-50-178-70-269-65l219 337c63 96 61 221-13 307z m-675-267c52-101 160-163 273-142l-125-243c-232 35-409 236-409 478 0 98 29 189 79 265z" horiz-adv-x="966.8" />

<glyph glyph-name="firefox" unicode="&#xf269;" d="M934 390c2-13 4-27 4-42v-5c-3-67-23-131-58-187-2-3-4-6-6-9 6-14 6-29 0-43-10-38-33-71-65-94-21-17-44-32-69-43l-3-2-2-1c-4-2-7-3-10-4-4-10-11-19-19-26-5-6-59-69-222-69-46 0-93 7-137 20 2 0 3-1 5-1-5 1-10 3-15 5-37 11-73 28-105 50-80 48-142 120-180 205-29 61-42 128-38 196-6-17-10-33-14-50 0 57 11 114 32 167-11-16-20-32-28-49 11 45 28 88 52 128 7 12 16 23 25 33v1c0 5 0 10 1 16 3 32 11 63 24 92l1 1c0 1 0-2 0-3s-1-3 0-2c1 4 2 8 4 11 2 5 5 8 8 12 0 0 0 0 0 1 1 0 0-4-1-7v-1c2 3 3 5 5 9 4 12 11 22 21 29l1 0c-1-18 2-35 8-51v-1c1 0 1 3 2 3 0 0 1 0 1 0 1-4 3-7 5-11 2-4 5-8 7-11l1-1 0 0c5-8 12-15 19-21h0l0 0c36 7 73 4 107-9l0 0c4 5 9 10 14 14 0-2 0-4 0-6 8 10 18 18 29 23-1-2-1-3-1-5 15 9 30 15 47 18 2 0-7-4-10-6 7 3 15 5 23 5 13 2 27-4 24-5-5-2-10-4-16-7-1-1 7 1 5-1-27-18-48-44-60-75v0c5-21 22-37 44-41 61-6 73-11 75-18v-3c0-2-1-3-1-5-2-14-9-26-20-35-2-2-5-5-8-6-3-2-13-6-25-11-16-7-31-14-45-23-2-2-5-3-6-5-1-1-3-3-3-3v0c1-3 2-5 3-8-3 4-6 2-4-1 2-5 2-10 2-15 0-9-1-19-5-27-4 3-9 5-13 8h0c4-3 8-8 10-13 2-4 0-5 0-5-3 3-6 7-11 9-6 3-17 9-22 11 0 0-1 0-1 0 1-3 4-8 4-8s-4 2-10 5c-7-3-14-9-18-17-7-15-6-32 2-47 8-11 18-22 29-29 1-1-6 2-6 1 9-6 19-12 28-17 3-2-9 3-6 1 3-2 5-3 8-5 45-24 76 1 110 6 33 6 66-7 87-33 11-17-1-33-18-28h0c-17 6-38-8-72-27-34-16-72-21-108-13-10 2-19 4-28 7l-4 2 1-1c17-24 39-44 64-59 17-9 35-15 53-18 16-4 32-6 48-6 119 0 216 97 216 216 0 31-6 62-18 91 41-24 74-59 95-101-27 79-78 110-126 150-38 29-68 68-85 113-49 132 65 259 65 259s-7-29 53-86c13-12 33-29 57-52 3 18 8 36 14 53 5-29 16-56 30-81 23-33 43-50 60-78 4-5 8-11 11-16 10-14 19-29 26-44 12-24 21-48 29-73 5-21 9-41 11-62 6 7 9 11 9 11s1-5 3-14z m-584 191c-1-2-2-4-3-7 1 3 2 5 3 7z" horiz-adv-x="937.5" />

<glyph glyph-name="opera" unicode="&#xf26a;" d="M613 786c-332 0-493-437-288-693 71-89 173-148 288-148 71 0 137 22 194 59-85-76-199-123-323-123-7 0-15 0-23 1-257 12-461 224-461 484 0 267 217 484 484 484h2c123-1 236-47 321-123-57 38-123 59-194 59z m199-777c-80-48-177-46-258 12 110 40 191 179 191 345 0 165-80 304-190 345 81 57 178 59 259 9 207-192 206-519-2-711z" horiz-adv-x="968.8" />

<glyph glyph-name="internet-explorer" unicode="&#xf26b;" d="M944 538c49-89 64-190 52-276h-642c0-196 282-265 384-92h236c-63-179-234-286-423-286-69 0-138 1-199 31-171-87-352-111-352 82 0 89 45 209 86 283 69 125 159 244 265 338-85-36-178-129-238-197 50 220 253 378 463 364 254 117 409 67 409-75 0-54-20-124-41-172z m-818-365c-143-298 23-337 196-241-91 53-161 141-196 241z m227 212h406c-4 108-99 185-203 185-105 0-199-77-203-185z m360 367c90-36 168-112 219-195 14 37 29 94 29 133 0 62-45 105-106 105-47 0-100-23-142-43z" horiz-adv-x="998" />

<glyph glyph-name="list" unicode="&#xf26c;" d="M125 694h31 125 32v-31-125-32h-32-125-31v32 125 31z m63-63v-62h62v62h-62z m187 0h469v-62h-469v62z m-250-187h31 125 32v-31-125-32h-32-125-31v32 125 31z m63-63v-62h62v62h-62z m187 0h469v-62h-469v62z m-250-187h31 125 32v-31-125-32h-32-125-31v32 125 31z m63-63v-62h62v62h-62z m187 0h469v-62h-469v62z" horiz-adv-x="1000" />

<glyph glyph-name="contao" unicode="&#xf26d;" d="M89 254c28-131 51-252 133-342h-156c-36 0-66 30-66 67v742c0 37 30 67 66 67h113c-27-25-51-54-72-86-89-136-53-286-18-448z m845 534c36 0 66-30 66-67v-742c0-37-30-67-66-67h-102c75 75 118 180 112 320l-268-58c-4-63-26-125-112-143-49-10-89 1-114 23-31 26-56 61-97 256-42 196-33 238-16 274 14 30 46 57 94 68 88 18 133-29 162-86l267 57c-26 68-61 123-103 165h177z" horiz-adv-x="1000" />

</font>
</defs>
</svg>
